Ссылка на приватное зеркало нашего сайта всего за 1$. Внимание количество ограничено!!!

2 сезон

iTunes

1 сезон

1

iTunes

iTunes

iTunes

1 сезон

RePack

30

ИГРА 18+

pack

ВАЖНО

!!Акция!!

Alien_RageХит недели

RePack

MK11
pack

Забери бонус

RePack

jed

!!Акция!!

Alien_Rage

RePack

fifa19

RePack

Assassins Creed: Odyssey

RePack

NEED FOR SPEED™ PAYBACK

4 сезон

9 сезон

Бесстыжие 9 сезон

Все сериалы

все сериалы на PB.wtf

RePack

FAR CRY 5
  

Пять недель на воздушном шаре / Five Weeks in a Balloon (Ирвин Аллен) [1962 г., Мелодрама, комедия, приключения, DVDRip-AVC, Авторский (одноголосый)] от ExKinoRay piratbit.pw

Пять недель на воздушном шаре через торрент piratbit.pw

Размер: 2.17 GB | Добавлен: 2 года 11 мес. назад | Торрент скачан:12 раз
Скачать  

29-10-2017 05:00 Пять недель на воздушном шаре Скачать торрент  

Пять недель на воздушном шаре / Five Weeks in a Balloon
Год выпуска: 1962
Страна: США
Жанр: Мелодрама, комедия, приключения
Продолжительность: 01:37:23
Перевод: Авторский (одноголосый)

Режиссер: Ирвин Аллен

Премьера в мире: 22 августа 1962

rating

В ролях: Ред Баттонс, Фабиан, Барбара Иден, Седрик Хардвик, Петер Лорре, Ричард Хейдн, Барбара Луна, Билли Гилберт, Херберт Маршалл, Реджинальд Оуэн

Описание: Профессор Самюэль Фергюссон на воздушном шаре собственной конструкции, по просьбе Королевы Англии, совершает путешествие в неизведанную область Африки. Ему необходимо опередить работорговцев и проделать весь путь за пять недель. В пути профессора и его спутников ждут как забавные, так и опасные приключения…

Доп. информация: Перевод: Авторский одноголосый (А.Михайлов)

Качество: DVDRip-AVC
Формат: MKV
Видео кодек: MPEG4
Аудио кодек: AC3
Видео: MPEG-4 AVC, 2800 Кбит/с, 720x432@1024x432, 25 кадров/сек
Аудио#1: Русский (AC3, 2 ch, 192 Кбит/с, 48 КГц)
Аудио#2: Английский (AC3, 2 ch, 192 Кбит/с, 48 КГц)
Релиз от:




raw [info]: 720x432p 64:45 @ 25/1 fps (cfr)
x264 [info]: using SAR=64/45
x264 [info]: using cpu capabilities: MMX2 SSE2Fast LZCNT
x264 [info]: profile High, level 4.1
x264 [info]: frame I:908 Avg QP:19.27 size: 50398
x264 [info]: frame P:28754 Avg QP:21.26 size: 25935
x264 [info]: frame B:116413 Avg QP:22.92 size: 10769
x264 [info]: consecutive B-frames: 1.1% 1.2% 10.3% 6.9% 5.2% 73.2% 1.0% 0.3% 0.3% 0.1% 0.1% 0.1% 0.0% 0.0% 0.2% 0.0% 0.0%
-----
Общее
Уникальный идентификатор : 207451610783038991215273007790966135072 (0x9C11BA178CC27953AC0D9B4811CF5920)
Полное имя : D:\Relizes\Five.Weeks.in.Balloon.1962.DVDRip-AVC.ExKinoRay.mkv
Формат : Matroska
Версия формата : Version 2
Размер файла : 2,17 Гбайт
Продолжительность : 1 ч. 37 м.
Общий поток : 3186 Кбит/сек
Дата кодирования : UTC 2017-10-29 02:51:20
Программа кодирования : mkvmerge v7.8.0 ('River Man') 32bit built on Apr 3 2015 12:11:22
Библиотека кодирования : libebml v1.3.1 + libmatroska v1.4.2

Видео
Идентификатор : 1
Формат : AVC
Формат/Информация : Advanced Video Codec
Профиль формата : High@L4.1
Параметр CABAC формата : Да
Параметр ReFrames формата : 14 кадров
Идентификатор кодека : V_MPEG4/ISO/AVC
Продолжительность : 1 ч. 37 м.
Битрейт : 2800 Кбит/сек
Ширина : 720 пикселей
Высота : 432 пикселя
Соотношение сторон : 2,40:1
Режим частоты кадров : Постоянный
Частота кадров : 25,000 кадров/сек
Цветовое пространство : YUV
Субдискретизация насыщенности : 4:2:0
Битовая глубина : 8 бит
Тип развёртки : Прогрессивная
Бит/(Пиксели*Кадры) : 0.360
Размер потока : 1,86 Гбайт (86%)
Библиотека кодирования : x264 core 148 r2638 7599210
Настройки программы : cabac=1 / ref=14 / deblock=1:-2:-2 / analyse=0x3:0x133 / me=umh / subme=10 / psy=1 / psy_rd=1.05:0.15 / mixed_ref=1 / me_range=32 / chroma_me=1 / trellis=2 / 8x8dct=1 / cqm=0 / deadzone=21,11 / fast_pskip=0 / chroma_qp_offset=-3 / threads=4 / lookahead_threads=1 / sliced_threads=0 / nr=0 / decimate=0 / interlaced=0 / bluray_compat=0 / constrained_intra=0 / bframes=16 / b_pyramid=2 / b_adapt=2 / b_bias=0 / direct=3 / weightb=1 / open_gop=0 / weightp=2 / keyint=250 / keyint_min=25 / scenecut=40 / intra_refresh=0 / rc=2pass / mbtree=0 / bitrate=2800 / ratetol=1.0 / qcomp=0.60 / qpmin=0 / qpmax=69 / qpstep=4 / cplxblur=20.0 / qblur=0.5 / ip_ratio=1.40 / pb_ratio=1.30 / aq=1:1.00
Язык : English
Default : Да
Forced : Нет
Цветовой диапазон : Limited
Основные цвета : BT.601 NTSC
Характеристики трансфера : BT.601
Коэффициенты матрицы : BT.601

Аудио #1
Идентификатор : 2
Формат : AC-3
Формат/Информация : Audio Coding 3
Расширение режима : CM (complete main)
Параметр Endianness формата : Big
Идентификатор кодека : A_AC3
Продолжительность : 1 ч. 37 м.
Вид битрейта : Постоянный
Битрейт : 192 Кбит/сек
Каналы : 2 канала
Расположение каналов : Front: L R
Частота : 48,0 КГц
Частота кадров : 31,250 кадров/сек (1536 spf)
Метод сжатия : С потерями
Размер потока : 134 Мбайт (6%)
Заголовок : Михайлов
Язык : Russian
Default : Да
Forced : Нет

Аудио #2
Идентификатор : 3
Формат : AC-3
Формат/Информация : Audio Coding 3
Расширение режима : CM (complete main)
Параметр Endianness формата : Big
Идентификатор кодека : A_AC3
Продолжительность : 1 ч. 37 м.
Вид битрейта : Постоянный
Битрейт : 192 Кбит/сек
Каналы : 2 канала
Расположение каналов : Front: L R
Частота : 48,0 КГц
Частота кадров : 31,250 кадров/сек (1536 spf)
Метод сжатия : С потерями
Размер потока : 134 Мбайт (6%)
Язык : English
Default : Нет
Forced : Нет

piratbit.pw



Скачать Пять недель на воздушном шаре через торрент http://s019.radikal.ru/i626/1710/34/51f870840cc6.jpg Скачать фильм Пять недель на воздушном шаре через торрент бесплантно в хорошем качестве Описание: Профессор Самюэль Фергюссон на воздушном шаре собственной конструкции, по просьбе Королевы Англии, совершает путешествие в ... 9 10 3
Info! Золотая раздача, скачанное не засчитывается.
Торрент: Зарегистрирован [2017-10-29 05:00] · скачан: 12 раз
Статус: √ проверено
Размер: 2.17 GB
Как cкачать? Как скачать Пять недель на воздушном шаре через торрент | qTorrent

28-11-2019 20:33  

Отключить всю рекламу на сайте

29-10-2017 05:07 Пять недель на воздушном шаре Скачать торрент  

Топик был перенесен из форума Оформление раздач (Кино, Видео и ТВ) в форум Классика зарубежного кино


bober100piratbit.pw



12-09-2018 13:53 Пять недель на воздушном шаре Скачать торрент  

Старый фильм, простой до наивности детского кино. Но! В картине начисто отсутствует политкорректность. В фильме никого не унижают по признакам расы, пола и религии, просто в нем нет обязательных героев либерального пантеона. Красивые съемки, костюмы , декорации, связность и логичность простого сценария, дрессированные животные очень добавляют удовольствия. Вряд ли это классика, просто неплохой старый фильм. Смотреть его с точки зрения обязательного самообразования добросовестного кинолюбителя не обязательно, особенно если вы твердо уверены, что посвятите полтора часа личностному росту, внутреннему развитию, гармонизации своих связей с Вселенной или другим похожим компьютерным играм. Если вы кинолюбитель попроще, попробуйте посмотреть, не понравится - выключите. Качество рипа не идеальное, но посмотреть и услышать немного настроив плеер можно без проблем. Спасибо за раздачу.piratbit.pw



    Дорогой пользователь! Огромная просьба, поблагодарите релизера, оцените раздачу и оставьте свои комментарий, если Вы скачали Пять недель на воздушном шаре через торрент бесплатно! Внесите свою лепту в развитие PiratBit!
    Комментировать посты могут только пользователи прошедшие не сложную регистрацию
    Показать сообщения:    

    Пять недель на воздушном шаре через торрент
    Скачать бесплатно Пять недель на воздушном шаре
    Пять недель на воздушном шаре скачать торрент
    Пять недель на воздушном шаре смотреть онлайн
    Cкачать фильм Пять недель на воздушном шаре бесплатно
    Пять недель на воздушном шаре скачать торрент в хорошем качестве
    Пять недель на воздушном шаре смотреть онлайн бесплатно в хорошем качестве


    Вы не можете начинать темы
    Вы не можете отвечать на сообщения
    Вы не можете редактировать свои сообщения
    Вы не можете удалять свои сообщения
    Вы не можете голосовать в опросах
    Вы не можете прикреплять файлы к сообщениям
    Вы можете скачивать файлы