2 сезон

iTunes

1 сезон

1

iTunes

iTunes

iTunes

1 сезон

RePack

30

ИГРА 18+

pack

ВАЖНО

!!Акция!!

Alien_RageХит недели

RePack

MK11
pack

Забери бонус

RePack

jed

!!Акция!!

Alien_Rage

RePack

fifa19

RePack

Assassins Creed: Odyssey

RePack

NEED FOR SPEED™ PAYBACK

4 сезон

9 сезон

Бесстыжие 9 сезон

Все сериалы

все сериалы на PB.wtf

RePack

FAR CRY 5
  

Золото древних инков / Das Vermächtnis des Inka (Георг Маришка) [1965 г., Приключения, вестерн, DVDRip, Профессиональный (двухголосый)] от ExKinoRay piratbit.pw

Золото древних инков через торрент piratbit.pw

Размер: 1.46 GB | Добавлен: 3 года назад | Торрент скачан:14 раз
Скачать  

28-10-2017 10:00 Золото древних инков Скачать торрент  

Золото древних инков / Das Vermächtnis des Inka
Год выпуска: 1965
Страна: Испания, Италия, Болгария, Германия (ФРГ)
Жанр: Приключения, вестерн
Продолжительность: 01:33:47
Перевод: Профессиональный (двухголосый)

Режиссер: Георг Маришка

Премьера в мире: 21 августа 1965

rating

В ролях: Гай Мэдисон, Рик Баталья, Фернандо Рей, Уильям Ротлейн, Франциско Рабаль, Хейнц Эрхард, Крис Хоулэнд, Уолтер Гиллер, Карло Тамберлани

Описание: Древние земли Южной Америки хранят ещё немало тайн и секретов. А также они хранят великие сокровища, оставшиеся после таинственной и трагической гибели целой цивилизации - Страны Великих Инков. Этот народ умел не только сражаться и завоёвывать всё новые пространства, но и красиво, с роскошью и шиком отдохнуть. Именно поэтому до сих пор то там, то здесь случайно находят громадные золотые изделия, невероятные в своей красоте драгоценные камни, невиданные по мастерству и великолепию кольца и ожерелья…
В этом фильме кучке авантюристов и искателей приключений противостоит мощная, хорошо законспирированная и разветвлённая тайная организация наследников Древних Инков. Кто из них выйдет победителем в безумной гонке за сокровищами? По произведению К.Ф.Мая.

Качество: DVDRip
Формат: AVI
Видео кодек: XviD
Аудио кодек: AC3
Видео: XviD, 1825 Кбит/с, 720x304, 25 кадров/сек
Аудио#1: Русский (AC3, 2 ch, 192 Кбит/с, 48 КГц)
Аудио#2: Немецкий (AC3, 2 ch, 192 Кбит/с, 48 КГц)
Релиз от:







Общее
Полное имя : D:\Relizes\Zoloto.Inkov.1965.DVDRip.ExKinoRay.avi
Формат : AVI
Формат/Информация : Audio Video Interleave
Размер файла : 1,46 Гбайт
Продолжительность : 1 ч. 33 м.
Общий поток : 2224 Кбит/сек
Программа кодирования : VirtualDubMod 1.5.10.3 (build 2550/release)
Библиотека кодирования : VirtualDubMod build 2550/release

Видео
Идентификатор : 0
Формат : MPEG-4 Visual
Профиль формата : Advanced Simple@L5
Параметр BVOP формата : 1
Параметр QPel формата : Нет
Параметр GMC формата : Без точки перехода
Параметр матрицы формата : Default (H.263)
Идентификатор кодека : XVID
Идентификатор кодека/Подсказка : XviD
Продолжительность : 1 ч. 33 м.
Битрейт : 1825 Кбит/сек
Ширина : 720 пикселей
Высота : 304 пикселя
Соотношение сторон : 2,35:1
Частота кадров : 25,000 кадров/сек
Цветовое пространство : YUV
Субдискретизация насыщенности : 4:2:0
Битовая глубина : 8 бит
Тип развёртки : Прогрессивная
Метод сжатия : С потерями
Бит/(Пиксели*Кадры) : 0.334
Размер потока : 1,20 Гбайт (82%)
Библиотека кодирования : XviD 1.2.1 (UTC 2008-12-04)

Аудио #1
Идентификатор : 1
Формат : AC-3
Формат/Информация : Audio Coding 3
Расширение режима : CM (complete main)
Параметр Endianness формата : Big
Идентификатор кодека : 2000
Продолжительность : 1 ч. 33 м.
Вид битрейта : Постоянный
Битрейт : 192 Кбит/сек
Каналы : 2 канала
Расположение каналов : Front: L R
Частота : 48,0 КГц
Частота кадров : 31,250 кадров/сек (1536 spf)
Метод сжатия : С потерями
Размер потока : 129 Мбайт (9%)
Выравнивание : Разделение по промежуткам
Продолжительность промежутка : 40 мс. (1,00 видеокадр)
Время предзагрузки промежутка : 500 мс.

Аудио #2
Идентификатор : 2
Формат : AC-3
Формат/Информация : Audio Coding 3
Расширение режима : CM (complete main)
Параметр Endianness формата : Big
Идентификатор кодека : 2000
Продолжительность : 1 ч. 33 м.
Вид битрейта : Постоянный
Битрейт : 192 Кбит/сек
Каналы : 2 канала
Расположение каналов : Front: L R
Частота : 48,0 КГц
Частота кадров : 31,250 кадров/сек (1536 spf)
Метод сжатия : С потерями
Размер потока : 129 Мбайт (9%)
Выравнивание : Разделение по промежуткам
Продолжительность промежутка : 40 мс. (1,00 видеокадр)
Время предзагрузки промежутка : 500 мс.

piratbit.pw



Скачать Золото древних инков через торрент http://s018.radikal.ru/i514/1710/b0/90bd3d0f49c6.jpg Скачать фильм Золото древних инков через торрент бесплантно в хорошем качестве Описание: Древние земли Южной Америки хранят ещё немало тайн и секретов. А также они хранят великие сокровища, оставшиеся после ... 9.5 10 2
Info! Золотая раздача, скачанное не засчитывается.
Торрент: Зарегистрирован [2017-10-28 10:00] · скачан: 14 раз
Статус: √ проверено
Размер: 1.46 GB
Как cкачать? Как скачать Золото древних инков через торрент | qTorrent

% Раздел Тема Автор DL S | L
Классика зарубежного кино [ 1.89 GB ] Золото древних инков / Das Vermächtnis des Inka [1965 DVDRip-AVC ] от ExKinoRay dumbia Скачать
1 | 0

28-11-2019 20:33  

Отключить всю рекламу на сайте

28-10-2017 13:13 Золото древних инков Скачать торрент  

Топик был перенесен из форума Оформление раздач (Кино, Видео и ТВ) в форум Классика зарубежного кино


-Lexx-piratbit.pw



    Дорогой пользователь! Огромная просьба, поблагодарите релизера, оцените раздачу и оставьте свои комментарий, если Вы скачали Золото древних инков через торрент бесплатно! Внесите свою лепту в развитие PiratBit!
    Комментировать посты могут только пользователи прошедшие не сложную регистрацию
    Показать сообщения:    

    Золото древних инков через торрент
    Скачать бесплатно Золото древних инков
    Золото древних инков скачать торрент
    Золото древних инков смотреть онлайн
    Cкачать фильм Золото древних инков бесплатно
    Золото древних инков скачать торрент в хорошем качестве
    Золото древних инков смотреть онлайн бесплатно в хорошем качестве


    Вы не можете начинать темы
    Вы не можете отвечать на сообщения
    Вы не можете редактировать свои сообщения
    Вы не можете удалять свои сообщения
    Вы не можете голосовать в опросах
    Вы не можете прикреплять файлы к сообщениям
    Вы можете скачивать файлы