Ссылка на приватное зеркало нашего сайта всего за 1$. Внимание количество ограничено!!!

2 сезон

iTunes

1 сезон

1

iTunes

iTunes

iTunes

1 сезон

RePack

30

ИГРА 18+

pack

ВАЖНО

!!Акция!!

Alien_RageХит недели

RePack

MK11
pack

Забери бонус

RePack

jed

!!Акция!!

Alien_Rage

RePack

fifa19

RePack

Assassins Creed: Odyssey

RePack

NEED FOR SPEED™ PAYBACK

4 сезон

9 сезон

Бесстыжие 9 сезон

Все сериалы

все сериалы на PB.wtf

RePack

FAR CRY 5
  

Именем итальянского народа / In nome del popolo italiano (Дино Ризи) [1971 г., Комедия, детектив, DVDRip-AVC, Дубляж] от ExKinoRay piratbit.pw

Именем итальянского народа через торрент piratbit.pw

Размер: 2.05 GB | Добавлен: 2 года 11 мес. назад | Торрент скачан:15 раз
Скачать  

27-10-2017 15:25 Именем итальянского народа Скачать торрент  

Именем итальянского народа / In nome del popolo italiano
Год выпуска: 1971
Страна: Италия
Жанр: Комедия, детектив
Продолжительность: 01:38:35
Перевод: Дубляж

Режиссер: Дино Ризи

Премьера в мире: 15 декабря 1971

rating

В ролях: Уго Тоньяцци, Витторио Гассман, Эли Галлеани, Ивонн Фюрно, Мишель Чимароза, Ренато Бальдини, Пьетро Торди, Мария Тереза Албани, Альфредо Адами, Россела Бергамонти

Описание: Бизнесмен Сантеночито имеет обширные связи, мастерски дает взятки и расталкивает конкурентов не только локтями, но и остальными частями тела. Дельца ничуть не смущает, что его фабрика загрязняет окружающую среду. Главное, что она приносит доход. Но помехой на его пути встает судья Бонифацци — один из тех редких чиновников, к которым не подходят традиционные методы Сантеночито

Доп. информация: Дублированный (Ленфильм) + вставки двухголосого на места вырезанные в Советском прокате
В советском прокате фильм шел под названием «Полмиллиарда за алиби»
Роли дублировали: Игорь Ефимов, Сергей Юрский, Александр Демьяненко, Юрий Соловьев, Николай Гаврилов

Качество: DVDRip-AVC
Формат: MKV
Видео кодек: MPEG4
Аудио кодек: AC3
Видео: MPEG-4 AVC, 2500 Кбит/с, 716x552@1018x552
Аудио#1: Русский (AC3, 1 ch, 96 бит/с, 48 КГц) - Советский дубляж
Аудио#2: Русский (AC3, 2 ch, 192 Кбит/с, 48 КГц) - двухголосый
Аудио#3: Итальянский (AC3, 2 ch, 192 Кбит/с, 48 КГц)
Релиз от:




raw [info]: 716x552p 64:45 @ 25/1 fps (cfr)
x264 [info]: using SAR=64/45
x264 [info]: using cpu capabilities: MMX2 SSE2Fast LZCNT
x264 [info]: profile High, level 4.1
x264 [info]: frame I:855 Avg QP:16.88 size: 65195
x264 [info]: frame P:29470 Avg QP:19.69 size: 26489
x264 [info]: frame B:117572 Avg QP:20.92 size: 8614
x264 [info]: consecutive B-frames: 1.4% 2.2% 6.3% 13.5% 19.2% 33.7% 15.7% 2.2% 1.4% 2.2% 0.4% 0.3% 1.5% 0.1% 0.0% 0.0% 0.0%
-----
Общее
Уникальный идентификатор : 238645972822174171138957882472380764456 (0xB3898AE25D9739BBB79F489DE59C1128)
Полное имя : D:\Relizes\Polmilliarda.Za.Alibi.1971.DVDRip-AVC.ExKinoRay.mkv
Формат : Matroska
Версия формата : Version 2
Размер файла : 2,05 Гбайт
Продолжительность : 1 ч. 38 м.
Общий поток : 2983 Кбит/сек
Дата кодирования : UTC 2017-10-27 11:57:04
Программа кодирования : mkvmerge v7.8.0 ('River Man') 32bit built on Apr 3 2015 12:11:22
Библиотека кодирования : libebml v1.3.1 + libmatroska v1.4.2

Видео
Идентификатор : 1
Формат : AVC
Формат/Информация : Advanced Video Codec
Профиль формата : High@L4.1
Параметр CABAC формата : Да
Параметр ReFrames формата : 14 кадров
Идентификатор кодека : V_MPEG4/ISO/AVC
Продолжительность : 1 ч. 38 м.
Битрейт : 2500 Кбит/сек
Ширина : 716 пикселей
Высота : 552 пикселя
Соотношение сторон : 1,85:1
Соотношение сторон в оригинале : 1,85:1
Режим частоты кадров : Постоянный
Частота кадров : 25,000 кадров/сек
Цветовое пространство : YUV
Субдискретизация насыщенности : 4:2:0
Битовая глубина : 8 бит
Тип развёртки : Прогрессивная
Бит/(Пиксели*Кадры) : 0.253
Размер потока : 1,68 Гбайт (82%)
Библиотека кодирования : x264 core 148 r2638 7599210
Настройки программы : cabac=1 / ref=14 / deblock=1:-2:-2 / analyse=0x3:0x133 / me=umh / subme=10 / psy=1 / psy_rd=1.05:0.15 / mixed_ref=1 / me_range=32 / chroma_me=1 / trellis=2 / 8x8dct=1 / cqm=0 / deadzone=21,11 / fast_pskip=0 / chroma_qp_offset=-3 / threads=4 / lookahead_threads=1 / sliced_threads=0 / nr=0 / decimate=0 / interlaced=0 / bluray_compat=0 / constrained_intra=0 / bframes=16 / b_pyramid=2 / b_adapt=2 / b_bias=0 / direct=3 / weightb=1 / open_gop=0 / weightp=2 / keyint=250 / keyint_min=25 / scenecut=40 / intra_refresh=0 / rc=2pass / mbtree=0 / bitrate=2500 / ratetol=1.0 / qcomp=0.60 / qpmin=0 / qpmax=69 / qpstep=4 / cplxblur=20.0 / qblur=0.5 / ip_ratio=1.40 / pb_ratio=1.30 / aq=1:1.00
Язык : English
Default : Да
Forced : Нет
Цветовой диапазон : Limited
Основные цвета : BT.601 NTSC
Характеристики трансфера : BT.601
Коэффициенты матрицы : BT.601

Аудио #1
Идентификатор : 2
Формат : AC-3
Формат/Информация : Audio Coding 3
Расширение режима : CM (complete main)
Параметр Endianness формата : Big
Идентификатор кодека : A_AC3
Продолжительность : 1 ч. 38 м.
Вид битрейта : Постоянный
Битрейт : 96,0 Кбит/сек
Каналы : 1 канал
Расположение каналов : Front: C
Частота : 48,0 КГц
Частота кадров : 31,250 кадров/сек (1536 spf)
Метод сжатия : С потерями
Размер потока : 67,7 Мбайт (3%)
Заголовок : Ленфильм
Язык : Russian
Default : Да
Forced : Нет

Аудио #2
Идентификатор : 3
Формат : AC-3
Формат/Информация : Audio Coding 3
Расширение режима : CM (complete main)
Параметр Endianness формата : Big
Идентификатор кодека : A_AC3
Продолжительность : 1 ч. 38 м.
Вид битрейта : Постоянный
Битрейт : 192 Кбит/сек
Каналы : 2 канала
Расположение каналов : Front: L R
Частота : 48,0 КГц
Частота кадров : 31,250 кадров/сек (1536 spf)
Метод сжатия : С потерями
Размер потока : 135 Мбайт (6%)
Заголовок : Двухголосый
Язык : Russian
Default : Нет
Forced : Нет

Аудио #3
Идентификатор : 4
Формат : AC-3
Формат/Информация : Audio Coding 3
Расширение режима : CM (complete main)
Параметр Endianness формата : Big
Идентификатор кодека : A_AC3
Продолжительность : 1 ч. 38 м.
Вид битрейта : Постоянный
Битрейт : 192 Кбит/сек
Каналы : 2 канала
Расположение каналов : Front: L R
Частота : 48,0 КГц
Частота кадров : 31,250 кадров/сек (1536 spf)
Метод сжатия : С потерями
Размер потока : 135 Мбайт (6%)
Язык : Italian
Default : Нет
Forced : Нет

piratbit.pw



Скачать Именем итальянского народа через торрент http://s019.radikal.ru/i625/1710/1b/084c665bcc32.jpg Скачать фильм Именем итальянского народа через торрент бесплантно в хорошем качестве Описание: Бизнесмен Сантеночито имеет обширные связи, мастерски дает взятки и расталкивает конкурентов не только локтями, но и остальными ... 5 10 1
Торрент: Зарегистрирован [2017-10-27 15:25] · скачан: 15 раз
Статус: √ проверено
Размер: 2.05 GB
Как cкачать? Как скачать Именем итальянского народа через торрент | qTorrent

28-11-2019 20:33  

Отключить всю рекламу на сайте

27-10-2017 16:41 Именем итальянского народа Скачать торрент  

Топик был перенесен из форума Оформление раздач (Кино, Видео и ТВ) в форум Классика зарубежного кино


bober100piratbit.pw



    Дорогой пользователь! Огромная просьба, поблагодарите релизера, оцените раздачу и оставьте свои комментарий, если Вы скачали Именем итальянского народа через торрент бесплатно! Внесите свою лепту в развитие PiratBit!
    Комментировать посты могут только пользователи прошедшие не сложную регистрацию
    Показать сообщения:    

    Именем итальянского народа через торрент
    Скачать бесплатно Именем итальянского народа
    Именем итальянского народа скачать торрент
    Именем итальянского народа смотреть онлайн
    Cкачать фильм Именем итальянского народа бесплатно
    Именем итальянского народа скачать торрент в хорошем качестве
    Именем итальянского народа смотреть онлайн бесплатно в хорошем качестве


    Вы не можете начинать темы
    Вы не можете отвечать на сообщения
    Вы не можете редактировать свои сообщения
    Вы не можете удалять свои сообщения
    Вы не можете голосовать в опросах
    Вы не можете прикреплять файлы к сообщениям
    Вы можете скачивать файлы