Ссылка на приватное зеркало всего за 1$. Внимание количество ограничено!!!

iTunes

iTunes

iTunes

1

iTunes

iTunes

iTunes

iTunes

iTunes

30
pack

Новость дня

ВАЖНО

!!Акция!!

Alien_RageХит недели

RePack

Resident Evil 21

ИГРА 18+

pack

RePack

jed

!!Акция!!

Alien_Rage

RePack

fifa19

RePack

Assassins Creed: Odyssey

RePack

NEED FOR SPEED™ PAYBACK

4 сезон

9 сезон

Бесстыжие 9 сезон

Все сериалы

все сериалы на PB.wtf

RePack

FAR CRY 5
  

Пятый элемент / The Fifth Element (Люк Бессон) [1997, Фантастика, боевик, комедия, приключения, триллер, UHD BDRemux 2160p] 2xDUB piratbit.pw

Пятый элемент через торрент piratbit.pw

Размер: 51.61 GB | Добавлен: 2 года 5 мес. назад | Торрент скачан:108 раз
Скачать  

25-10-2017 04:49 Пятый элемент Скачать торрент  

Пятый элемент / The Fifth ElementГод выпуска: 1997
Страна: Франция
Жанр: Фантастика, боевик, комедия, приключения, триллер
Продолжительность: 02:05:53

Перевод(ы):

#1: Дублированный | (лицензия BD-RUS - "Амальгама")
#2: Дублированный | (кинотеатральный - "НТВ-Профит")

Субтитры: Русские, английские

Режиссер: Люк Бессон

rating

В ролях:

Брюс Уиллис, Милла Йовович, Гэри Олдман, Иэн Холм, Крис Такер, Люк Перри, Брайон Джеймс, Томми Листер, Ли Эванс, Чарли Крид-Майлз, Трики, Джон Невилл, Джон Блузал, Матьё Кассовиц, Кристофер Фэйрбэнк, Ким Чан, Ричард Лиф, Джули Т. Уоллес, Эл Мэтьюз, Майвенн Ле Беско, Джон Беннет, Иван Хенг, Сонита Генри, Тим МакМуллан, Хон Пинг Тэнг, Джордж Кхан, Джон Хьюз

Описание:

Каждые пять тысяч лет открываются двери между измерениями и темные силы стремятся нарушить существующую гармонию. Каждые пять тысяч лет Вселенной нужен герой, способный противостоять этому злу. XXIII век. Нью-йоркский таксист Корбен Даллас должен решить глобальную задачу — спасение всего рода человеческого. Зло в виде раскаленной массы, наделенной интеллектом, надвигается на Землю. Победить его можно, только лишь собрав воедино четыре элемента (они же стихии — земля, вода, воздух и огонь) и добавив к ним загадочный пятый элемент.

Качество: UHD BDRemux 2160p
Формат: MKV
Видео кодек: HEVC
Аудио кодек: AC3

Видео: MPEG-H HEVC HDR Video, 3840x2160, 51.2 Mbit/s, 23.976 fps
Аудио#1: 48 kHz, AC3, 5.1, 640 Kbps | Дублированный | RUS |
Аудио#2: 48 kHz, AC3, 5.1, 448 Kbps | Дублированный | RUS |
Аудио#3: 48 kHz, TrueHD, 7.1, 5666 Kbps | Оригинал | ENG |
Аудио#4: 48 kHz, AC3, 5.1, 640 Kbps | Оригинал | ENG |

Релиз от:
скриншот  скриншот  скриншот  скриншот  скриншот  

General
Unique ID : 197690603900012393035686166880701735730 (0x94B9D34BF0A6368D905420C30F296332)
Complete name : G:VideoSSDThe.Fifth.Element.1997.BDREMUX.2160p.4K.UltraHD.HEVC.HDR.ExKinoRay.mkv
Format : Matroska
Format version : Version 4 / Version 2
File size : 51.6 GiB
Duration : 2 h 5 min
Overall bit rate mode : Variable
Overall bit rate : 58.7 Mb/s
Encoded date : UTC 2017-10-25 03:58:36
Writing application : mkvmerge v17.0.0 ('Be Ur Friend') 64-bit
Writing library : libebml v1.3.5 + libmatroska v1.4.8

Video
ID : 1
Format : HEVC
Format/Info : High Efficiency Video Coding
Format profile : Main 10@L5.1@High
Codec ID : V_MPEGH/ISO/HEVC
Duration : 2 h 5 min
Bit rate : 51.2 Mb/s
Width : 3 840 pixels
Height : 2 160 pixels
Display aspect ratio : 16:9
Frame rate mode : Constant
Frame rate : 23.976 (24000/1001) FPS
Color space : YUV
Chroma subsampling : 4:2:0 (Type 2)
Bit depth : 10 bits
Bits/(Pixel*Frame) : 0.258
Stream size : 45.0 GiB (87%)
Language : English
Default : Yes
Forced : No
Color range : Limited
Color primaries : BT.2020
Transfer characteristics : PQ
Matrix coefficients : BT.2020 non-constant
Mastering display color pri : R: x=0.680000 y=0.320000, G: x=0.265000 y=0.690000, B: x=0.150000 y=0.060000, White point: x=0.312700 y=0.329000
Mastering display luminance : min: 0.0050 cd/m2, max: 4000.0000 cd/m2
Maximum Content Light Level : 10000 cd/m2
Maximum Frame-Average Light : 724 cd/m2

Audio #1
ID : 2
Format : AC-3
Format/Info : Audio Coding 3
Format settings, Endianness : Big
Codec ID : A_AC3
Duration : 2 h 5 min
Bit rate mode : Constant
Bit rate : 640 kb/s
Channel(s) : 6 channels
Channel positions : Front: L C R, Side: L R, LFE
Sampling rate : 48.0 kHz
Frame rate : 31.250 FPS (1536 SPF)
Bit depth : 16 bits
Compression mode : Lossy
Stream size : 576 MiB (1%)
Title : Dub (Амальгама)
Language : Russian
Service kind : Complete Main
Default : Yes
Forced : No

Audio #2
ID : 3
Format : AC-3
Format/Info : Audio Coding 3
Format settings, Endianness : Big
Codec ID : A_AC3
Duration : 2 h 5 min
Bit rate mode : Constant
Bit rate : 448 kb/s
Channel(s) : 6 channels
Channel positions : Front: L C R, Side: L R, LFE
Sampling rate : 48.0 kHz
Frame rate : 31.250 FPS (1536 SPF)
Bit depth : 16 bits
Compression mode : Lossy
Stream size : 403 MiB (1%)
Title : Dub (НТВ-Профит)
Language : Russian
Service kind : Complete Main
Default : No
Forced : No

Audio #3
ID : 4
Format : TrueHD
Format profile : TrueHD+Atmos / TrueHD
Codec ID : A_TRUEHD
Duration : 2 h 5 min
Bit rate mode : Variable
Bit rate : 5 666 kb/s
Maximum bit rate : 9 144 kb/s
Channel(s) : Object Based / 8 channels
Channel positions : Object Based / Front: L C R, Side: L R, Back: L R, LFE
Sampling rate : / 48.0 kHz
Frame rate : 1 200.000 FPS (40 SPF)
Compression mode : Lossless
Delay relative to video : 1 ms
Stream size : 4.98 GiB (10%)
Title : Original
Language : English
Default : No
Forced : No

Audio #4
ID : 5
Format : AC-3
Format/Info : Audio Coding 3
Format settings, Endianness : Big
Codec ID : A_AC3
Duration : 2 h 5 min
Bit rate mode : Constant
Bit rate : 640 kb/s
Channel(s) : 6 channels
Channel positions : Front: L C R, Side: L R, LFE
Sampling rate : 48.0 kHz
Frame rate : 31.250 FPS (1536 SPF)
Bit depth : 16 bits
Compression mode : Lossy
Delay relative to video : 1 ms
Stream size : 576 MiB (1%)
Language : English
Service kind : Complete Main
Default : No
Forced : No

Text #1
ID : 6
Format : UTF-8
Codec ID : S_TEXT/UTF8
Codec ID/Info : UTF-8 Plain Text
Duration : 2 h 0 min
Bit rate : 76 b/s
Count of elements : 1261
Stream size : 67.3 KiB (0%)
Title : Full
Language : Russian
Default : No
Forced : No

Text #2
ID : 7
Format : UTF-8
Codec ID : S_TEXT/UTF8
Codec ID/Info : UTF-8 Plain Text
Duration : 1 h 58 min
Bit rate : 50 b/s
Count of elements : 1424
Stream size : 44.0 KiB (0%)
Title : Full
Language : English
Default : No
Forced : No

Text #3
ID : 8
Format : UTF-8
Codec ID : S_TEXT/UTF8
Codec ID/Info : UTF-8 Plain Text
Duration : 2 h 4 min
Bit rate : 61 b/s
Count of elements : 1766
Stream size : 56.0 KiB (0%)
Title : SDH
Language : English
Default : No
Forced : No

Menu
00:00:00.000 : en:Chapter 01
00:02:37.157 : en:Chapter 02
00:12:11.772 : en:Chapter 03
00:24:17.539 : en:Chapter 04
00:32:14.682 : en:Chapter 05
00:40:05.277 : en:Chapter 06
00:48:11.680 : en:Chapter 07
00:53:23.241 : en:Chapter 08
01:00:16.612 : en:Chapter 09
01:07:17.032 : en:Chapter 10
01:11:16.730 : en:Chapter 11
01:21:54.659 : en:Chapter 12
01:27:25.657 : en:Chapter 13
01:38:29.778 : en:Chapter 14
01:46:35.347 : en:Chapter 15
01:52:26.364 : en:Chapter 16

piratbit.pw



Скачать Пятый элемент через торрент http://i066.radikal.ru/1710/c1/684e456ab8a1.jpg Скачать фильм Пятый элемент через торрент бесплантно в хорошем качестве Описание: Каждые пять тысяч лет открываются двери между измерениями и темные силы стремятся нарушить существующую гармонию. Каждые пять ... 10 10 5
Info! Золотая раздача, скачанное не засчитывается.
Торрент: Зарегистрирован [2017-10-25 04:49] · скачан: 108 раз
Статус: √ проверено
Размер: 51.61 GB
Как cкачать? Как скачать Пятый элемент через торрент | qTorrent

% Раздел Тема Автор DL S | L
Ultra HD (UHD: 2K, 4K, 8K) — видео сверхвысокой чёткости [ 39.53 GB ] Пятый элемент / The Fifth Element [1997 UHD BDRip 2160p] 2xDUB + MVO + DVO + 3xAVO + 3xMVO sheker187 Скачать
1 | 0
Ultra HD (UHD: 2K, 4K, 8K) — видео сверхвысокой чёткости [ 58.13 GB ] Пятый элемент / The Fifth Element [1997 UHDWEBRip 2160p] [4K Remastered] 2xDUB+MVO+DVO+3xAVO bober100 Скачать
2 | 0

28-11-2019 20:33  

Отключить всю рекламу на сайте

    Дорогой пользователь! Огромная просьба, поблагодарите релизера, оцените раздачу и оставьте свои комментарий, если Вы скачали Пятый элемент через торрент бесплатно! Внесите свою лепту в развитие PiratBit!
    Комментировать посты могут только пользователи прошедшие не сложную регистрацию
    Показать сообщения:    

    Пятый элемент через торрент
    Скачать бесплатно Пятый элемент
    Пятый элемент скачать торрент
    Пятый элемент смотреть онлайн
    Cкачать фильм Пятый элемент бесплатно
    Пятый элемент скачать торрент в хорошем качестве
    Пятый элемент смотреть онлайн бесплатно в хорошем качестве


    Вы не можете начинать темы
    Вы не можете отвечать на сообщения
    Вы не можете редактировать свои сообщения
    Вы не можете удалять свои сообщения
    Вы не можете голосовать в опросах
    Вы не можете прикреплять файлы к сообщениям
    Вы можете скачивать файлы