Ссылка на приватное зеркало всего за 1$. Внимание количество ограничено!!!

iTunes

iTunes

iTunes

1

iTunes

iTunes

iTunes

iTunes

iTunes

30
pack

Новость дня

ВАЖНО

!!Акция!!

Alien_RageХит недели

RePack

Resident Evil 21

ИГРА 18+

pack

RePack

jed

!!Акция!!

Alien_Rage

RePack

fifa19

RePack

Assassins Creed: Odyssey

RePack

NEED FOR SPEED™ PAYBACK

4 сезон

9 сезон

Бесстыжие 9 сезон

Все сериалы

все сериалы на PB.wtf

RePack

FAR CRY 5
  

Дом странных детей Мисс Перегрин / Miss Peregrine's Home for Peculiar Children (Тим Бёртон ) [2016, фэнтези, драма, приключения, UHD BDRemux 2160p] DUB + AVO [Лицензия] piratbit.pw

Дом странных детей Мисс Перегрин через торрент piratbit.pw

Размер: 40.25 GB | Добавлен: 2 года 5 мес. назад | Торрент скачан:60 раз
Скачать  

25-10-2017 02:55 Дом странных детей Мисс Перегрин Скачать торрент  

Дом странных детей Мисс ПерегринMiss Peregrine's Home for Peculiar Children«Stay peculiar» Год выпуска: 2016
Страна: США, Великобритания, Бельгия
Жанр: фэнтези, драма, приключения, семейный
Продолжительность: 02:06:55
Перевод: Дублированный, Одноголосый закадровый
Субтитры: Русские (Full), английские (Full, SDH)
Режиссер: Тим Бёртон
В ролях:

Ева Грин (Miss Peregrine), Эйса Баттерфилд (Jake), Сэмюэл Л. Джексон (Barron), Джуди Денч (Miss Avocet), Руперт Эверетт (Ornithologist), Эллисон Дженни (Dr. Golan), Крис О’Дауд (Franklin Portman), Теренс Стэмп (Abraham «Abe» Portman), Элла Пернелл (Emma Bloom), Финлэй МакМиллан (Enoch O'Conner), Лорен МакКрости (Olive Abroholos Elephanta), Хейден Килер-Стоун (Horace Somnusson)
Описание:
Детство Джейкоба прошло под рассказы дедушки о приюте для необычных детей. Среди его обитателей девочка, которая умела держать в руках огонь, девочка, чьи ноги не касались земли, невидимый мальчик и близнецы, умевшие общаться без слов. Когда дедушка умирает, 16-летний Джейкоб получает загадочное письмо и отправляется на остров, где вырос его дед. Там он находит детей, которых раньше видел только на фотографиях.
Рейтинг:

MPAA: PG-13 - Детям до 13 лет просмотр не желателен
Качество: UHD BDRemux 2160p
Формат: MKV
Видео: MPEG-H HEVC HDR Video, 3840x2160, 34.9 Mbit/s, 23.976 fps
Аудио #01: 48 kHz, DTS, 5.1, 768 Kbps | Дублированный | Лицензия
Аудио #02: 48 kHz, DTS-HD MA, 7.1, 4579 Kbps | Авторский | Сербин
Аудио #03: 48 kHz, TrueHD, 7.1, 4397 kbps | Оригинал |
Аудио #04: 48 kHz, AC3, 5.1, 640 kbps | Оригинал |
Навигация по главам: есть

General
Unique ID : 228071654595101654337763796615727120701 (0xAB9500BE62E6BC488E869CBCFD73813D)
Complete name : G:VideoSSDMiss.Peregrines.Home.for.Peculiar.Children.2016.BDREMUX.2160p.4K.UltraHD.HEVC.HDR.ExKinoRay.mkv
Format : Matroska
Format version : Version 4 / Version 2
File size : 40.2 GiB
Duration : 2 h 6 min
Overall bit rate mode : Variable
Overall bit rate : 45.4 Mb/s
Encoded date : UTC 2017-10-25 01:03:56
Writing application : mkvmerge v17.0.0 ('Be Ur Friend') 64-bit
Writing library : libebml v1.3.5 + libmatroska v1.4.8

Video
ID : 1
Format : HEVC
Format/Info : High Efficiency Video Coding
Format profile : Main 10@L5.1@High
Codec ID : V_MPEGH/ISO/HEVC
Duration : 2 h 6 min
Bit rate : 34.9 Mb/s
Width : 3 840 pixels
Height : 2 160 pixels
Display aspect ratio : 16:9
Frame rate mode : Constant
Frame rate : 23.976 (24000/1001) FPS
Color space : YUV
Chroma subsampling : 4:2:0 (Type 2)
Bit depth : 10 bits
Bits/(Pixel*Frame) : 0.176
Stream size : 31.0 GiB (77%)
Writing library : ATEME Titan File 3.7.6 (4.7.6.101)
Language : English
Default : Yes
Forced : No
Color range : Limited
Color primaries : BT.2020
Transfer characteristics : PQ
Matrix coefficients : BT.2020 non-constant
Mastering display color pri : R: x=0.680000 y=0.320000, G: x=0.265000 y=0.690000, B: x=0.150000 y=0.060000, White point: x=0.312700 y=0.329000
Mastering display luminance : min: 0.0000 cd/m2, max: 1000.0000 cd/m2

Audio #1
ID : 2
Format : DTS
Format/Info : Digital Theater Systems
Mode : 16
Format settings, Endianness : Big
Codec ID : A_DTS
Duration : 2 h 6 min
Bit rate mode : Constant
Bit rate : 768 kb/s
Channel(s) : 6 channels
Channel positions : Front: L C R, Side: L R, LFE
Sampling rate : 48.0 kHz
Frame rate : 93.750 FPS (512 SPF)
Bit depth : 24 bits
Compression mode : Lossy
Stream size : 697 MiB (2%)
Title : Dub [License]
Language : Russian
Default : Yes
Forced : No

Audio #2
ID : 3
Format : DTS
Format/Info : Digital Theater Systems
Format profile : MA / ES Matrix / Core
Mode : 16
Format settings, Endianness : Big
Codec ID : A_DTS
Duration : 2 h 6 min
Bit rate mode : Variable / Constant / Constant
Bit rate : 4 579 kb/s / 1 509 kb/s / 1 509 kb/s
Channel(s) : 8 channels / 7 channels / 6 channels
Channel positions : Front: L C R, Side: L R, Back: L R, LFE / Front: L C R, Side: L R, Back: C, LFE / Front: L C R, Side: L R, LFE
Sampling rate : 48.0 kHz
Frame rate : 93.750 FPS (512 SPF)
Bit depth : 24 bits
Compression mode : Lossless / Lossy / Lossy
Stream size : 4.06 GiB (10%)
Title : AVO [Сербин]
Language : Russian
Default : No
Forced : No

Audio #3
ID : 4
Format : TrueHD
Format profile : TrueHD+Atmos / TrueHD
Codec ID : A_TRUEHD
Duration : 2 h 6 min
Bit rate mode : Variable
Bit rate : 4 397 kb/s
Maximum bit rate : 8 187 kb/s
Channel(s) : Object Based / 8 channels
Channel positions : Object Based / Front: L C R, Side: L R, Back: L R, LFE
Sampling rate : / 48.0 kHz
Frame rate : 1 200.000 FPS (40 SPF)
Compression mode : Lossless
Delay relative to video : 32 ms
Stream size : 3.90 GiB (10%)
Title : Original
Language : English
Default : No
Forced : No

Audio #4
ID : 5
Format : AC-3
Format/Info : Audio Coding 3
Format settings, Endianness : Big
Codec ID : A_AC3
Duration : 2 h 6 min
Bit rate mode : Constant
Bit rate : 640 kb/s
Channel(s) : 6 channels
Channel positions : Front: L C R, Side: L R, LFE
Sampling rate : 48.0 kHz
Frame rate : 31.250 FPS (1536 SPF)
Bit depth : 16 bits
Compression mode : Lossy
Delay relative to video : 32 ms
Stream size : 581 MiB (1%)
Language : English
Service kind : Complete Main
Default : No
Forced : No

Text #1
ID : 6
Format : UTF-8
Codec ID : S_TEXT/UTF8
Codec ID/Info : UTF-8 Plain Text
Duration : 1 h 58 min
Bit rate : 79 b/s
Count of elements : 1407
Stream size : 69.5 KiB (0%)
Title : Full
Language : Russian
Default : No
Forced : No

Text #2
ID : 7
Format : UTF-8
Codec ID : S_TEXT/UTF8
Codec ID/Info : UTF-8 Plain Text
Duration : 2 h 1 min
Bit rate : 49 b/s
Count of elements : 1570
Stream size : 44.6 KiB (0%)
Title : Full
Language : English
Default : No
Forced : No

Text #3
ID : 8
Format : UTF-8
Codec ID : S_TEXT/UTF8
Codec ID/Info : UTF-8 Plain Text
Duration : 2 h 1 min
Bit rate : 54 b/s
Count of elements : 1805
Stream size : 48.8 KiB (0%)
Title : SDH
Language : English
Default : No
Forced : No

Menu
00:00:00.000 : en:00:00:00.000
00:03:40.804 : en:00:03:40.804
00:08:38.017 : en:00:08:38.017
00:13:06.828 : en:00:13:06.828
00:15:26.551 : en:00:15:26.551
00:19:47.478 : en:00:19:47.478
00:23:23.652 : en:00:23:23.652
00:27:47.040 : en:00:27:47.040
00:31:06.448 : en:00:31:06.448
00:34:36.783 : en:00:34:36.783
00:39:34.998 : en:00:39:34.998
00:42:42.810 : en:00:42:42.810
00:46:05.638 : en:00:46:05.638
00:48:36.497 : en:00:48:36.497
00:54:16.462 : en:00:54:16.462
00:57:21.480 : en:00:57:21.480
01:02:03.261 : en:01:02:03.261
01:08:20.847 : en:01:08:20.847
01:14:29.006 : en:01:14:29.006
01:18:54.063 : en:01:18:54.063
01:24:15.300 : en:01:24:15.300
01:28:42.442 : en:01:28:42.442
01:33:11.753 : en:01:33:11.753
01:36:29.033 : en:01:36:29.033
01:40:43.788 : en:01:40:43.788
01:46:09.238 : en:01:46:09.238
01:53:35.308 : en:01:53:35.308
02:00:34.394 : en:02:00:34.394


piratbit.pw



Скачать Дом странных детей Мисс Перегрин через торрент http://i91.fastpic.ru/big/2017/0127/00/89b9667c5ec69a7bb0f608bdb9257400.png Скачать фильм Дом странных детей Мисс Перегрин через торрент бесплантно в хорошем качестве Описание: Детство Джейкоба прошло под рассказы дедушки о приюте для необычных детей. Среди его обитателей девочка, которая умела держать в ... 10 10 5
Info! Золотая раздача, скачанное не засчитывается.
Торрент: Зарегистрирован [2017-10-25 02:55] · скачан: 60 раз
Статус: √ проверено
Размер: 40.25 GB
Как cкачать? Как скачать Дом странных детей Мисс Перегрин через торрент | qTorrent

28-11-2019 20:33  

Отключить всю рекламу на сайте

    Дорогой пользователь! Огромная просьба, поблагодарите релизера, оцените раздачу и оставьте свои комментарий, если Вы скачали Дом странных детей Мисс Перегрин через торрент бесплатно! Внесите свою лепту в развитие PiratBit!
    Комментировать посты могут только пользователи прошедшие не сложную регистрацию
    Показать сообщения:    

    Дом странных детей Мисс Перегрин через торрент
    Скачать бесплатно Дом странных детей Мисс Перегрин
    Дом странных детей Мисс Перегрин скачать торрент
    Дом странных детей Мисс Перегрин смотреть онлайн
    Cкачать фильм Дом странных детей Мисс Перегрин бесплатно
    Дом странных детей Мисс Перегрин скачать торрент в хорошем качестве
    Дом странных детей Мисс Перегрин смотреть онлайн бесплатно в хорошем качестве


    Вы не можете начинать темы
    Вы не можете отвечать на сообщения
    Вы не можете редактировать свои сообщения
    Вы не можете удалять свои сообщения
    Вы не можете голосовать в опросах
    Вы не можете прикреплять файлы к сообщениям
    Вы можете скачивать файлы