Ссылка на приватное зеркало всего за 1$. Внимание количество ограничено!!!

iTunes

iTunes

iTunes

1

iTunes

iTunes

iTunes

iTunes

iTunes

30
pack

Новость дня

ВАЖНО

!!Акция!!

Alien_RageХит недели

RePack

Resident Evil 21

ИГРА 18+

pack

RePack

jed

!!Акция!!

Alien_Rage

RePack

fifa19

RePack

Assassins Creed: Odyssey

RePack

NEED FOR SPEED™ PAYBACK

4 сезон

9 сезон

Бесстыжие 9 сезон

Все сериалы

все сериалы на PB.wtf

RePack

FAR CRY 5
  

Джейсон Борн / Jason Bourne (Пол Гринграсс) [2016, Боевик, триллер, UHD BDRemux 2160p] DUB+AVO [Лицензия Blu-Ray CEE] piratbit.pw

Джейсон Борн через торрент piratbit.pw

Размер: 60.59 GB | Добавлен: 2 года 5 мес. назад | Торрент скачан:39 раз
Скачать  

24-10-2017 22:47 Джейсон Борн Скачать торрент  

Джейсон Борн / Jason BourneГод выпуска: 2016
Страна: США
Жанр: Боевик, триллер
Продолжительность: 02:03:09

Перевод:

#1: Дублированный | Лицензия Blu-Ray CEE
#2: Авторский | Есарев

Субтитры: Русские (forced, full), украинские (forced, full), английские

Режиссер: Пол Гринграсс

rating

В ролях:

Мэтт Дэймон, Алисия Викандер, Томми Ли Джонс, Венсан Кассель, Джулия Стайлз, Риз Ахмед, Ато Эссонда, Скотт Шеперд, Билл Кэмп, Винцец Кифер

Описание:

Хакерская атака серверов ЦРУ поднимает на ноги весь Лэнгли. Объект взлома-архивы "Тредстоуна", проекта по созданию спецагентов, одним из которых был Джейсон Борн.ЦРУ берет след злоумышленницы Никки Парсонс, которая должна привести их к пропавшему Борну. И если амбициозный зам Хизер Ли еще уповает на возврат Джейсона к службе, то планы директора Дьюи далеко не так оптимистичны. К тому же начинает рваться с поводка Калур, гений, в чьей миллиардной соцсети ЦРУ видит источник для сбора данных. Джейсону Борну вновь придется выйти из тени и померяться силами с давними врагами.

Качество: UHD BDRemux 2160p
Формат: MKV
Видео кодек: HEVC
Аудио кодек: DTS

Видео: MPEG-H HEVC HDR Video, 3840x2160, 56.5 Mbit/s, 23.976 fps
Аудио#1: 48 kHz, DTS, 5.1, 768 Kbps | Дублированный |
Аудио#2: 48 kHz, DTS-HD MA, 7.1, 5712 Kbps | Авторский |
Аудио#3: 48 kHz, DTS-HD MA, 7.1, 7389 kbps | Оригинал |

Релиз от:
скриншот  скриншот  скриншот  скриншот  скриншот  

General
Unique ID : 248367118131319322703123113919937653297 (0xBAD9C45A2DE6E750BC33EDC5C0A62A31)
Complete name : G:VideoSSDJason.Bourne.2016.BDREMUX.2160p.4K.UltraHD.HEVC.HDR.ExKInoRay.mkv
Format : Matroska
Format version : Version 4 / Version 2
File size : 60.6 GiB
Duration : 2 h 3 min
Overall bit rate : 70.4 Mb/s
Encoded date : UTC 2017-10-24 22:06:02
Writing application : mkvmerge v17.0.0 ('Be Ur Friend') 64-bit
Writing library : libebml v1.3.5 + libmatroska v1.4.8

Video
ID : 1
Format : HEVC
Format/Info : High Efficiency Video Coding
Format profile : Main 10@L5.1@High
Codec ID : V_MPEGH/ISO/HEVC
Duration : 2 h 3 min
Bit rate : 56.5 Mb/s
Width : 3 840 pixels
Height : 2 160 pixels
Display aspect ratio : 16:9
Frame rate mode : Constant
Frame rate : 23.976 (24000/1001) FPS
Color space : YUV
Chroma subsampling : 4:2:0 (Type 2)
Bit depth : 10 bits
Bits/(Pixel*Frame) : 0.284
Stream size : 48.6 GiB (80%)
Writing library : ATEME Titan KFE 3.7.3 (4.7.3.1003)
Language : English
Default : Yes
Forced : No
Color range : Limited
Color primaries : BT.2020
Transfer characteristics : PQ
Matrix coefficients : BT.2020 non-constant
Mastering display color pri : R: x=0.680000 y=0.320000, G: x=0.265000 y=0.690000, B: x=0.150000 y=0.060000, White point: x=0.312700 y=0.329000
Mastering display luminance : min: 0.0050 cd/m2, max: 1000.0000 cd/m2
Maximum Content Light Level : 960 cd/m2
Maximum Frame-Average Light : 105 cd/m2

Audio #1
ID : 2
Format : DTS
Format/Info : Digital Theater Systems
Mode : 16
Format settings, Endianness : Big
Codec ID : A_DTS
Duration : 2 h 3 min
Bit rate mode : Constant
Bit rate : 768 kb/s
Channel(s) : 6 channels
Channel positions : Front: L C R, Side: L R, LFE
Sampling rate : 48.0 kHz
Frame rate : 93.750 FPS (512 SPF)
Bit depth : 24 bits
Compression mode : Lossy
Stream size : 677 MiB (1%)
Title : Dub-DTS [License Blu-ray CEE]
Language : Russian
Default : Yes
Forced : No

Audio #2
ID : 3
Format : DTS
Format/Info : Digital Theater Systems
Format profile : MA / Core
Mode : 16
Format settings, Endianness : Big
Codec ID : A_DTS
Duration : 2 h 3 min
Bit rate mode : Variable / Constant
Bit rate : 5 712 kb/s / 1 509 kb/s
Channel(s) : 8 channels / 6 channels
Channel positions : Front: L C R, Side: L R, Back: L R, LFE / Front: L C R, Side: L R, LFE
Sampling rate : 48.0 kHz
Frame rate : 93.750 FPS (512 SPF)
Bit depth : 24 bits
Compression mode : Lossless / Lossy
Stream size : 4.92 GiB (8%)
Title : AVO [Yesarev]
Language : Russian
Default : No
Forced : No

Audio #3
ID : 4
Format : DTS
Format/Info : Digital Theater Systems
Format profile : X / MA / Core
Mode : 16
Format settings, Endianness : Big
Codec ID : A_DTS
Duration : 2 h 3 min
Bit rate mode : Variable / Variable / Constant
Bit rate : 7 389 kb/s / 7 389 kb/s / 1 509 kb/s
Channel(s) : Object Based / 8 channels / 6 channels
Channel positions : Object Based / Front: L C R, Side: L R, Back: L R, LFE / Front: L C R, Side: L R, LFE
Sampling rate : / 48.0 kHz / 48.0 kHz
Frame rate : 93.750 FPS (512 SPF)
Bit depth : / 24 bits / 24 bits
Compression mode : / Lossless / Lossy
Stream size : 6.36 GiB (10%)
Title : Original
Language : English
Default : No
Forced : No

Text #1
ID : 5
Format : UTF-8
Codec ID : S_TEXT/UTF8
Codec ID/Info : UTF-8 Plain Text
Duration : 1 h 51 min
Bit rate : 2 b/s
Count of elements : 45
Stream size : 1.99 KiB (0%)
Title : Forced
Language : Russian
Default : Yes
Forced : No

Text #2
ID : 6
Format : UTF-8
Codec ID : S_TEXT/UTF8
Codec ID/Info : UTF-8 Plain Text
Duration : 1 h 53 min
Bit rate : 65 b/s
Count of elements : 940
Stream size : 54.6 KiB (0%)
Title : Full
Language : Russian
Default : No
Forced : No

Text #3
ID : 7
Format : UTF-8
Codec ID : S_TEXT/UTF8
Codec ID/Info : UTF-8 Plain Text
Duration : 1 h 51 min
Bit rate : 2 b/s
Count of elements : 45
Stream size : 2.20 KiB (0%)
Title : Forced
Language : Ukrainian
Default : No
Forced : No

Text #4
ID : 8
Format : UTF-8
Codec ID : S_TEXT/UTF8
Codec ID/Info : UTF-8 Plain Text
Duration : 1 h 53 min
Bit rate : 69 b/s
Count of elements : 1140
Stream size : 57.4 KiB (0%)
Title : Full
Language : Ukrainian
Default : No
Forced : No

Text #5
ID : 9
Format : UTF-8
Codec ID : S_TEXT/UTF8
Codec ID/Info : UTF-8 Plain Text
Duration : 1 h 53 min
Bit rate : 37 b/s
Count of elements : 1038
Stream size : 30.9 KiB (0%)
Title : Full
Language : English
Default : No
Forced : No

Text #6
ID : 10
Format : UTF-8
Codec ID : S_TEXT/UTF8
Codec ID/Info : UTF-8 Plain Text
Duration : 1 h 53 min
Bit rate : 43 b/s
Count of elements : 1244
Stream size : 35.7 KiB (0%)
Title : SDH
Language : English
Default : No
Forced : No

Text #7
ID : 11
Format : UTF-8
Codec ID : S_TEXT/UTF8
Codec ID/Info : UTF-8 Plain Text
Duration : 1 h 53 min
Bit rate : 55 b/s
Count of elements : 1244
Stream size : 45.7 KiB (0%)
Title : SDH-Colored
Language : English
Default : No
Forced : No

Menu
00:00:00.000 : en:Chapter 1
00:04:04.661 : en:Chapter 2
00:08:21.543 : en:Chapter 3
00:13:32.687 : en:Chapter 4
00:18:28.316 : en:Chapter 5
00:24:07.237 : en:Chapter 6
00:29:21.259 : en:Chapter 7
00:36:15.548 : en:Chapter 8
00:42:20.663 : en:Chapter 9
00:48:22.441 : en:Chapter 10
00:55:12.184 : en:Chapter 11
01:01:09.666 : en:Chapter 12
01:08:32.483 : en:Chapter 13
01:16:23.329 : en:Chapter 14
01:24:45.330 : en:Chapter 15
01:29:06.550 : en:Chapter 16
01:37:52.909 : en:Chapter 17
01:44:26.343 : en:Chapter 18
01:48:03.727 : en:Chapter 19
01:54:01.209 : en:Chapter 20

piratbit.pw



Скачать Джейсон Борн через торрент http://s014.radikal.ru/i329/1710/74/653b09428027.jpg Скачать фильм Джейсон Борн через торрент бесплантно в хорошем качестве Описание: Хакерская атака серверов ЦРУ поднимает на ноги весь Лэнгли. Объект взлома-архивы "Тредстоуна", проекта по созданию спецагентов, ... 8 10 6
Info! Золотая раздача, скачанное не засчитывается.
Торрент: Зарегистрирован [2017-10-24 22:47] · скачан: 39 раз
Статус: √ проверено
Размер: 60.59 GB
Как cкачать? Как скачать Джейсон Борн через торрент | qTorrent

% Раздел Тема Автор DL S | L
Ultra HD (UHD: 2K, 4K, 8K) — видео сверхвысокой чёткости [ 75.77 GB ] Джейсон Борн / Jason Bourne [2016 UHD BDRemux2160p] DUB+ 4xAVO + VO sheker187 Скачать
1 | 0
Сборники и Сиквелы (48-60 fps) [ 13.93 GB ] Джейсон Борн: Квадрология / Jason Bourne: Quadrilogy [2002-2016 BDRip-HEVC 720p / 60 FPS Оригинал] Tiberiumsun69 Скачать
6 | 1
Фильмы (Blu-ray, BD-Remux, HDDVD) [ 30.54 GB ] Джейсон Борн / Jason Bourne [2016 BD Remux 1080p] DUB [ Blu-Ray CEE] bober100 Скачать
2 | 0
Ultra HD (UHD: 2K, 4K, 8K) — видео сверхвысокой чёткости [ 53 GB ] Джейсон Борн / Jason Bourne [2016 UHDWEBRip 2160p] - [] sheker187 Скачать
1 | 0
Фильмы 2016 [DVDrip, WEB-DLRip, HDrip] (DUB, MVO) [ 2.18 GB ] Джейсон Борн / Jason Bourne [2016 BDRip] - [] Twi7ter Скачать
1 | 0
Фильмы 2016 [DVDrip, WEB-DLRip, HDrip] (DUB, MVO) [ 1.46 GB ] Джейсон Борн / Jason Bourne [2016 BDRip] - [] Twi7ter Скачать
3 | 0
R.G. Resident & PiratVoice - Фильмы, Видео [ 6.76 GB ] Джейсон Борн / Jason Bourne [2016 BDRip 720p] - [BD CEE] R.G.Resident schultz Скачать
1 | 0


Последний раз редактировалось: bober100 (2017-10-25 05:28), всего редактировалось 2 раз(а)

28-11-2019 20:33  

Отключить всю рекламу на сайте

25-10-2017 03:19 Джейсон Борн Скачать торрент  

фильм 2016 г.в.piratbit.pw



    Дорогой пользователь! Огромная просьба, поблагодарите релизера, оцените раздачу и оставьте свои комментарий, если Вы скачали Джейсон Борн через торрент бесплатно! Внесите свою лепту в развитие PiratBit!
    Комментировать посты могут только пользователи прошедшие не сложную регистрацию
    Показать сообщения:    

    Джейсон Борн через торрент
    Скачать бесплатно Джейсон Борн
    Джейсон Борн скачать торрент
    Джейсон Борн смотреть онлайн
    Cкачать фильм Джейсон Борн бесплатно
    Джейсон Борн скачать торрент в хорошем качестве
    Джейсон Борн смотреть онлайн бесплатно в хорошем качестве


    Вы не можете начинать темы
    Вы не можете отвечать на сообщения
    Вы не можете редактировать свои сообщения
    Вы не можете удалять свои сообщения
    Вы не можете голосовать в опросах
    Вы не можете прикреплять файлы к сообщениям
    Вы можете скачивать файлы