Ссылка на приватное зеркало всего за 1$. Внимание количество ограничено!!!

iTunes

iTunes

iTunes

1

iTunes

iTunes

iTunes

iTunes

iTunes

30
pack

Новость дня

ВАЖНО

!!Акция!!

Alien_RageХит недели

RePack

Resident Evil 21

ИГРА 18+

pack

RePack

jed

!!Акция!!

Alien_Rage

RePack

fifa19

RePack

Assassins Creed: Odyssey

RePack

NEED FOR SPEED™ PAYBACK

4 сезон

9 сезон

Бесстыжие 9 сезон

Все сериалы

все сериалы на PB.wtf

RePack

FAR CRY 5
  

Прибытие / Arrival (Дени Вильнёв) [2016, Фантастика, триллер, драма, детектив, UHD BDRemux 2160p] DUB+2xAVO [Лицензия] piratbit.pw

Прибытие через торрент piratbit.pw

Размер: 51.04 GB | Добавлен: 2 года 5 мес. назад | Торрент скачан:67 раз
Скачать  

23-10-2017 15:57 Прибытие Скачать торрент  

Прибытие / ArrivalГод выпуска: 2016
Страна: США
Жанр: Фантастика, триллер, драма, детектив
Продолжительность: 01:56:32

Перевод:

#1: Дублированный | Лицензия
#2: Авторский | Дмитрий Есарев
#3: Авторский | Алексей Матвеев


Субтитры: Русские (forced, full), английские

Режиссер: Дени Вильнёв

rating

В ролях:

Эми Адамс, Джереми Реннер, Майкл Стулбарг, Форест Уитакер, Сангита Патель, Марк О’Брайэн, Эбигейл Пнёвски, Ци Ма, Натали Тибо, Рут Чианг, Анана Ридвальд, Расселл Юэнь, Фрэнк Фиола, Ларри Дэй, Пэт Кили, Джо Кобден, Джулиан Кэйси, Эндрю Шэйвер, Макс Уолкер, Кристиан Джада, Женевьева Сироис, Мустафа Хайдари, Кэтлин Ставерт, Шон Кэмпбелл

Описание:

В разных уголках планеты внезапно появляются неопознанные летающие объекты. Они мирно зависают над поверхностью и всем своим видом демонстрируют полное равнодушие к населению. Цели их визита неизвестны, язык не узнаваем и вообще никто ничего не понимает. Стремясь установить с инопланетянами контакт, и обойтись без танковых клиньев, правительство привлекает к этому крайне запутанному делу лингвиста Луизу Бэнкс и физика Яна Доннели. Им необходимо понять замыслы пришельцев до того, пока кто-нибудь из военных на почве нервного срыва не решится превратить весь мир в могильник с ядерными отходами. В основе фильма лежит повесть Теда Чана «История твоей жизни» (Story of Your Life, 1998).

Качество: UHD BDRemux 2160p
Формат: MKV
Видео кодек: HEVC
Аудио кодек: AC3/DTS-HD (MA)

Видео: MPEG-H HEVC HDR Video, 3840x2160, 51.1 Mbit/s, 23.976 fps
Аудио#1: 48 kHz, AC3, 5.1, 640 Kbps | Дублированный |
Аудио#2: 48 kHz, DTS-HD MA, 7.1, 4238 kbps | Авторский |
Аудио#3: 48 kHz, DTS-HD MA, 7.1, 4247 kbps | Авторский |
Аудио#4: 48 kHz, DTS-HD MA, 7.1, 2525 kbps | Оригинал |

Релиз от:
скриншот  скриншот  скриншот  скриншот  скриншот  

General
Unique ID : 176865585303505909987246992721594432152 (0x850F129B9977C9AB8F2B99BFA66A3A98)
Complete name : F:Arrival.2016.BDREMUX.2160p.4K.UltraHD.HEVC.HDR.ExKinoRay.mkv
Format : Matroska
Format version : Version 4 / Version 2
File size : 51.0 GiB
Duration : 1 h 56 min
Overall bit rate : 62.7 Mb/s
Encoded date : UTC 2017-10-13 23:03:36
Writing application : mkvmerge v16.0.0 ('Protest') 64-bit
Writing library : libebml v1.3.5 + libmatroska v1.4.8

Video
ID : 1
Format : HEVC
Format/Info : High Efficiency Video Coding
Format profile : Main 10@L5.1@High
Codec ID : V_MPEGH/ISO/HEVC
Duration : 1 h 56 min
Bit rate : 51.1 Mb/s
Width : 3 840 pixels
Height : 2 160 pixels
Display aspect ratio : 16:9
Frame rate mode : Constant
Frame rate : 23.976 (24000/1001) FPS
Color space : YUV
Chroma subsampling : 4:2:0 (Type 2)
Bit depth : 10 bits
Bits/(Pixel*Frame) : 0.257
Stream size : 41.6 GiB (81%)
Language : English
Default : Yes
Forced : No
Color range : Limited
Color primaries : BT.2020
Transfer characteristics : PQ
Matrix coefficients : BT.2020 non-constant
Mastering display color pri : R: x=0.680000 y=0.320000, G: x=0.265000 y=0.690000, B: x=0.150000 y=0.060000, White point: x=0.312700 y=0.329000
Mastering display luminance : min: 0.0050 cd/m2, max: 4000.0000 cd/m2
Maximum Content Light Level : 9977 cd/m2
Maximum Frame-Average Light : 240 cd/m2

Audio #1
ID : 2
Format : AC-3
Format/Info : Audio Coding 3
Format settings, Endianness : Big
Codec ID : A_AC3
Duration : 1 h 56 min
Bit rate mode : Constant
Bit rate : 640 kb/s
Channel(s) : 6 channels
Channel positions : Front: L C R, Side: L R, LFE
Sampling rate : 48.0 kHz
Frame rate : 31.250 FPS (1536 SPF)
Bit depth : 16 bits
Compression mode : Lossy
Stream size : 533 MiB (1%)
Title : Dub [License]
Language : Russian
Service kind : Complete Main
Default : Yes
Forced : No

Audio #2
ID : 3
Format : DTS
Format/Info : Digital Theater Systems
Format profile : MA / Core
Mode : 16
Format settings, Endianness : Big
Codec ID : A_DTS
Duration : 1 h 56 min
Bit rate mode : Variable / Constant
Bit rate : 4 238 kb/s / 1 509 kb/s
Channel(s) : 8 channels / 6 channels
Channel positions : Front: L C R, Side: L R, Back: L R, LFE / Front: L C R, Side: L R, LFE
Sampling rate : 48.0 kHz
Frame rate : 93.750 FPS (512 SPF)
Bit depth : 24 bits
Compression mode : Lossless / Lossy
Stream size : 3.45 GiB (7%)
Title : AVO [Yesarev]
Language : Russian
Default : No
Forced : No

Audio #3
ID : 4
Format : DTS
Format/Info : Digital Theater Systems
Format profile : MA / Core
Mode : 16
Format settings, Endianness : Big
Codec ID : A_DTS
Duration : 1 h 56 min
Bit rate mode : Variable / Constant
Bit rate : 4 247 kb/s / 1 509 kb/s
Channel(s) : 8 channels / 6 channels
Channel positions : Front: L C R, Side: L R, Back: L R, LFE / Front: L C R, Side: L R, LFE
Sampling rate : 48.0 kHz
Frame rate : 93.750 FPS (512 SPF)
Bit depth : 24 bits
Compression mode : Lossless / Lossy
Stream size : 3.45 GiB (7%)
Title : AVO [Doctor_Joker]
Language : Russian
Default : No
Forced : No

Audio #4
ID : 5
Format : DTS
Format/Info : Digital Theater Systems
Format profile : MA / Core
Mode : 16
Format settings, Endianness : Big
Codec ID : A_DTS
Duration : 1 h 56 min
Bit rate mode : Variable / Constant
Bit rate : 2 525 kb/s / 1 509 kb/s
Channel(s) : 8 channels / 6 channels
Channel positions : Front: L C R, Side: L R, Back: L R, LFE / Front: L C R, Side: L R, LFE
Sampling rate : 48.0 kHz
Frame rate : 93.750 FPS (512 SPF)
Bit depth : 16 bits
Compression mode : Lossless / Lossy
Stream size : 2.06 GiB (4%)
Title : Original
Language : English
Default : No
Forced : No

Text #1
ID : 6
Format : UTF-8
Codec ID : S_TEXT/UTF8
Codec ID/Info : UTF-8 Plain Text
Duration : 40 min 3 s
Bit rate : 1 b/s
Count of elements : 13
Stream size : 552 Bytes (0%)
Title : Forced
Language : Russian
Default : Yes
Forced : No

Text #2
ID : 7
Format : UTF-8
Codec ID : S_TEXT/UTF8
Codec ID/Info : UTF-8 Plain Text
Duration : 1 h 49 min
Bit rate : 72 b/s
Count of elements : 759
Stream size : 57.7 KiB (0%)
Title : Full
Language : Russian
Default : No
Forced : No

Text #3
ID : 8
Format : UTF-8
Codec ID : S_TEXT/UTF8
Codec ID/Info : UTF-8 Plain Text
Duration : 1 h 48 min
Bit rate : 53 b/s
Count of elements : 1219
Stream size : 42.8 KiB (0%)
Title : Full
Language : English
Default : No
Forced : No

Menu
00:00:00.000 : en:Chapter 1
00:09:54.385 : en:Chapter 2
00:17:38.015 : en:Chapter 3
00:24:31.595 : en:Chapter 4
00:33:58.620 : en:Chapter 5
00:43:51.212 : en:Chapter 6
00:52:30.564 : en:Chapter 7
00:57:39.039 : en:Chapter 8
01:03:10.912 : en:Chapter 9
01:09:33.669 : en:Chapter 10
01:17:23.680 : en:Chapter 11
01:25:26.287 : en:Chapter 12
01:35:41.527 : en:Chapter 13
01:41:00.429 : en:Chapter 14
01:43:42.967 : en:Chapter 15
01:45:38.207 : en:Chapter 16

piratbit.pw



Скачать Прибытие через торрент http://s02.radikal.ru/i175/1710/10/ec9d660ba31e.jpg Скачать фильм Прибытие через торрент бесплантно в хорошем качестве Описание: В разных уголках планеты внезапно появляются неопознанные летающие объекты. Они мирно зависают над поверхностью и всем своим ... 10 10 4
Info! Золотая раздача, скачанное не засчитывается.
Торрент: Зарегистрирован [2017-10-23 15:57] · скачан: 67 раз
Статус: √ проверено
Размер: 51.04 GB
Как cкачать? Как скачать Прибытие через торрент | qTorrent

% Раздел Тема Автор DL S | L
Ultra HD (UHD: 2K, 4K, 8K) — видео сверхвысокой чёткости [ 19.43 GB ] Прибытие / Arrival [2016 UHD BDRip 2160p] [SDR] DUB + 2xAVO sheker187 Скачать
1 | 0
Ultra HD (UHD: 2K, 4K, 8K) — видео сверхвысокой чёткости [ 68.63 GB ] Прибытие / Arrival [2016 UHD BDRemux 2160p] DUB + MVO + 7xAVO sheker187 Скачать
1 | 0
Фильмы [HD 720p, 1080p] (Хороший звук DUB, MVO) [ 18.21 GB ] Прибытие / The Arrival [1996 BDRip 1080p by msltel] 2 x MVO 3 x DVO 3 x AVO msltel Скачать
1 | 0
Фильмы [HD 720p, 1080p] (Хороший звук DUB, MVO) [ 8.31 GB ] Прибытие / The Arrival [1996 BDRip 720p by msltel] 2 x MVO 3 x DVO 3 x AVO msltel Скачать
1 | 0
T Фильмы 2017 [DVDrip, WEB-DLRip, HDrip] (DUB, MVO) [ 1.6 GB ] Смерть по прибытии / Dead on Arrival [2017 трилле WEB-DLRip-AVC] MVO [HDRezka Studio] bober100 Скачать
1 | 0
Фильмы 2016 [DVDrip, WEB-DLRip, HDrip] (DUB, MVO) [ 2.18 GB ] Прибытие / Arrival [2016 BDRip-AVC] sokol_ok Скачать
2 | 0
T Фильмы (WEB-DL 720p, 1080p) [ 3.44 GB ] Смерть по прибытии / Dead on Arrival [2017 WEB-DL 1080p] MVO [HDrezka Studio] sokol_ok Скачать
1 | 0

28-11-2019 20:33  

Отключить всю рекламу на сайте

    Дорогой пользователь! Огромная просьба, поблагодарите релизера, оцените раздачу и оставьте свои комментарий, если Вы скачали Прибытие через торрент бесплатно! Внесите свою лепту в развитие PiratBit!
    Комментировать посты могут только пользователи прошедшие не сложную регистрацию
    Показать сообщения:    

    Прибытие через торрент
    Скачать бесплатно Прибытие
    Прибытие скачать торрент
    Прибытие смотреть онлайн
    Cкачать фильм Прибытие бесплатно
    Прибытие скачать торрент в хорошем качестве
    Прибытие смотреть онлайн бесплатно в хорошем качестве


    Вы не можете начинать темы
    Вы не можете отвечать на сообщения
    Вы не можете редактировать свои сообщения
    Вы не можете удалять свои сообщения
    Вы не можете голосовать в опросах
    Вы не можете прикреплять файлы к сообщениям
    Вы можете скачивать файлы