1 сезон

1 сезон

iTunes

1

КиноПоиск HD

Кинопоиск HD

iTunes

13

1 сезон

RePack

30

Ultimate

ВАЖНО

ИГРА 18+

pack

RePack

MK11
pack

Легкие деньги

RePack

jed

RePack

fifa19

RePack

RDR2

RePack

NEED FOR SPEED™ PAYBACK

4 сезон

9 сезон

Бесстыжие 9 сезон

Все сериалы

все сериалы на PB.wtf

RePack

FAR CRY 5
  
Magnet ссылка

Незваный гость / Intruder (Director's Cut) (Скотт Спигел) [1989, ужасы, триллер, детектив, BDRip 720p by msltel] 2 x AVO piratbit.pw

Незваный гость через торрент piratbit.pw

Размер: 4.57 GB | Добавлен: 3 года 6 мес. назад | Торрент скачан:13 раз
Скачать  

22-10-2017 06:33 Незваный гость Скачать торрент  

Название: Незваный гость
Оригинальное название: Intruder
Год выпуска: 1989
Страна: США
Жанр: ужасы, триллер, детектив
Продолжительность: 01:27:35
Перевод: авторский

Режиссер: Скотт Спигел
В ролях: Элизабет Кокс, Рени Эстевез, Дэн Хикс, Девид Бернс, Сэм Рэйми, Юджин Роберт Глэйзер, Билли Марти, Бёрр Стирс, Крейг Старк, Тед Рэйми, Элви Мур, Том Лестер, Эмиль Ситка, Брюс Кэмпбелл, Лоуренс Бендер, Скотт Спигел, Дуглас Хесслер, Грегори Никотеро, Майк Ионаску, Джим Хэнсон, Джим Рейкел, Паула Ф. Мейджор, Лаура Шварц, Марк Сатикой, Стив Патино, Мара Мэсси, Кристофер Зальцгебер

О фильме: Бывший друг продавщицы супермаркета приходит к ней перед окончанием рабочего дня. Молодые люди ссорятся, и охранники выкидывают парня на улицу. Супермаркет закрывается, а продавцы и кладовщики остаются на инвентаризацию. Вскоре они начинают один за другим погибать самыми разнообразными способами...



Качество: BDRip 720p
Формат: MKV
Видео: MPEG-4 AVC, 6864 Кбит/с, 1280x720
Аудио 1: русский, AC3, 224 kbps, 2 ch, 48 kHz [авторский, Андрей Гаврилов]
Аудио 2: русский, AC3, 192 kbps, 2 ch, 48 kHz [авторский, Владимир Штейн]
Аудио 3: английский, AC3, 192 kbps, 2 ch, 48 kHz [оригинал]
Имеются неименованные главы/чаптеры.
Общее
Уникальный идентификатор : 213716704907743637299212514774492700007 (0xA0C85714B5C209AFA86D242F7014DD67)
Полное имя : D:\Video\Незваный гость.1989.DirCut.BDRip.720p by msltel.mkv
Формат : Matroska
Версия формата : Version 4 / Version 2
Размер файла : 4,57 Гбайт
Продолжительность : 1 ч. 27 м.
Общий поток : 7474 Кбит/сек
Название фильма : Rip by msltel
Дата кодирования : UTC 2017-10-22 05:05:10
Программа кодирования : mkvmerge v8.2.0 ('World of Adventure') 64bit
Библиотека кодирования : libebml v1.3.1 + libmatroska v1.4.2

Видео
Идентификатор : 1
Формат : AVC
Формат/Информация : Advanced Video Codec
Профиль формата : High@L4.1
Параметр CABAC формата : Да
Параметр RefFrames формата : 9 кадров
Идентификатор кодека : V_MPEG4/ISO/AVC
Продолжительность : 1 ч. 27 м.
Битрейт : 6864 Кбит/сек
Ширина : 1280 пикселей
Высота : 720 пикселей
Соотношение сторон : 16:9
Режим частоты кадров : Постоянный
Частота кадров : 23,976 (24000/1001) кадра/сек
Цветовое пространство : YUV
Субдискретизация насыщенности : 4:2:0
Битовая глубина : 8 бит
Тип развёртки : Прогрессивная
Бит/(Пиксели*Кадры) : 0.311
Размер потока : 4,20 Гбайт (92%)
Библиотека кодирования : x264 core 146 r2538 121396c
Настройки программы : cabac=1 / ref=9 / deblock=1:-3:-2 / analyse=0x3:0x113 / me=umh / subme=11 / psy=1 / psy_rd=1.00:0.15 / mixed_ref=1 / me_range=32 / chroma_me=1 / trellis=2 / 8x8dct=1 / cqm=0 / deadzone=21,11 / fast_pskip=0 / chroma_qp_offset=-3 / threads=6 / lookahead_threads=1 / sliced_threads=0 / nr=0 / decimate=1 / interlaced=0 / bluray_compat=0 / constrained_intra=0 / bframes=11 / b_pyramid=2 / b_adapt=2 / b_bias=0 / direct=1 / weightb=1 / open_gop=0 / weightp=2 / keyint=230 / keyint_min=23 / scenecut=40 / intra_refresh=0 / rc_lookahead=40 / rc=crf / mbtree=0 / crf=20.0 / qcomp=0.60 / qpmin=0 / qpmax=69 / qpstep=4 / vbv_maxrate=62500 / vbv_bufsize=78125 / crf_max=0.0 / nal_hrd=none / filler=0 / ip_ratio=1.40 / pb_ratio=1.30 / aq=1:1.00
Язык : English
Default : Да
Forced : Нет

Аудио #1
Идентификатор : 2
Формат : AC-3
Формат/Информация : Audio Coding 3
Параметр Endianness формата : Big
Идентификатор кодека : A_AC3
Продолжительность : 1 ч. 27 м.
Вид битрейта : Постоянный
Битрейт : 224 Кбит/сек
Каналы : 2 канала
Расположение каналов : Front: L R
Частота : 48,0 КГц
Частота кадров : 31,250 кадров/сек (1536 SPF)
Битовая глубина : 16 бит
Метод сжатия : С потерями
Размер потока : 140 Мбайт (3%)
Заголовок : Андрей Гаврилов
Язык : Russian
ServiceKind/String : Complete Main
Default : Да
Forced : Нет

Аудио #2
Идентификатор : 3
Формат : AC-3
Формат/Информация : Audio Coding 3
Параметр Endianness формата : Big
Идентификатор кодека : A_AC3
Продолжительность : 1 ч. 27 м.
Вид битрейта : Постоянный
Битрейт : 192 Кбит/сек
Каналы : 2 канала
Расположение каналов : Front: L R
Частота : 48,0 КГц
Частота кадров : 31,250 кадров/сек (1536 SPF)
Битовая глубина : 16 бит
Метод сжатия : С потерями
Размер потока : 120 Мбайт (3%)
Заголовок : Владимир Штейн
Язык : Russian
ServiceKind/String : Complete Main
Default : Нет
Forced : Нет

Аудио #3
Идентификатор : 4
Формат : AC-3
Формат/Информация : Audio Coding 3
Параметр Endianness формата : Big
Идентификатор кодека : A_AC3
Продолжительность : 1 ч. 27 м.
Вид битрейта : Постоянный
Битрейт : 192 Кбит/сек
Каналы : 2 канала
Расположение каналов : Front: L R
Частота : 48,0 КГц
Частота кадров : 31,250 кадров/сек (1536 SPF)
Битовая глубина : 16 бит
Метод сжатия : С потерями
Размер потока : 120 Мбайт (3%)
Заголовок : original
Язык : English
ServiceKind/String : Complete Main
Default : Нет
Forced : Нет

Меню
00:00:00.000 : en:00:00:00.000
00:04:13.378 : en:00:04:13.378
00:09:30.069 : en:00:09:30.069
00:17:24.752 : en:00:17:24.752
00:29:23.762 : en:00:29:23.762
00:38:30.391 : en:00:38:30.391
00:45:05.328 : en:00:45:05.328
00:51:49.857 : en:00:51:49.857
00:58:06.900 : en:00:58:06.900
01:06:05.753 : en:01:06:05.753
01:15:05.751 : en:01:15:05.751
01:23:57.074 : en:01:23:57.074
piratbit.pw



Скачать Незваный гость через торрент http://s03.radikal.ru/i176/1710/2e/aa86b2424eba.jpg Скачать фильм Незваный гость через торрент бесплантно в хорошем качестве О фильме: Бывший друг продавщицы супермаркета приходит к ней перед окончанием рабочего дня. Молодые люди ссорятся, и охранники выкидывают ... 5 10 1
Info! Золотая раздача, скачанное не засчитывается.
Торрент: Зарегистрирован [2017-10-22 06:33] · скачан: 13 раз
Статус: √ проверено
Размер: 4.57 GB
Как cкачать? Как скачать Незваный гость через торрент | UTorrent

% Раздел Тема Автор DL S | L
Фильмы с авторской озвучкой [ 12.39 GB ] Незваный гость / Intruder [1989 BDRip 1080p by msltel] 2 x AVO msltel Скачать
1 | 0

28-11-2019 20:33  

Отключить всю рекламу на сайте

    Дорогой пользователь! Огромная просьба, поблагодарите релизера, оцените раздачу и оставьте свои комментарий, если Вы скачали Незваный гость через торрент бесплатно! Внесите свою лепту в развитие PiratBit!
    Комментировать посты могут только пользователи прошедшие не сложную регистрацию
    Показать сообщения:    

    Незваный гость через торрент
    Скачать бесплатно Незваный гость
    Незваный гость скачать торрент
    Незваный гость смотреть онлайн
    Cкачать фильм Незваный гость бесплатно
    Незваный гость скачать торрент в хорошем качестве
    Незваный гость смотреть онлайн бесплатно в хорошем качестве


    Вы не можете начинать темы
    Вы не можете отвечать на сообщения
    Вы не можете редактировать свои сообщения
    Вы не можете удалять свои сообщения
    Вы не можете голосовать в опросах
    Вы не можете прикреплять файлы к сообщениям
    Вы можете скачивать файлы