Ссылка на приватное зеркало всего за 1$. Внимание количество ограничено!!!

iTunes

iTunes

iTunes

1

iTunes

iTunes

iTunes

iTunes

iTunes

30
pack

Новость дня

ВАЖНО

!!Акция!!

Alien_RageХит недели

RePack

Resident Evil 21

ИГРА 18+

pack

RePack

jed

!!Акция!!

Alien_Rage

RePack

fifa19

RePack

Assassins Creed: Odyssey

RePack

NEED FOR SPEED™ PAYBACK

4 сезон

9 сезон

Бесстыжие 9 сезон

Все сериалы

все сериалы на PB.wtf

RePack

FAR CRY 5
  

Чудо на Гудзоне / Sully (Клинт Иствуд) [2016, Драма, биография, UHD BDRemux 2160p] DUB [Лицензия] piratbit.pw

Чудо на Гудзоне через торрент piratbit.pw

Размер: 45.48 GB | Добавлен: 2 года 5 мес. назад | Торрент скачан:48 раз
Скачать  

19-10-2017 14:15 Чудо на Гудзоне Скачать торрент  

Чудо на Гудзоне / SullyГод выпуска: 2016
Страна: США
Жанр: Драма, биография
Продолжительность: 01:35:50
Перевод: Дубляж Лицензия
Субтитры: Русские (forced, full), aнглийские

Режиссер: Клинт Иствуд

rating

В ролях:

Том Хэнкс, Аарон Экхарт, Валери Махаффей, Делфи Хэррингтон, Майк О`Мэлли, Джейми Шеридан, Анна Ганн, Холт МакКэллани, Ахмед Хуссэйн, Лора Линни

Описание:

Герой Том Хэнкса - рядовой лётчик-профессионал, которому в сложнейшей ситуации пришлось принять единственно правильное решение, которое оправдалось конечным результатом – посадкой аварийного самолёта с пассажирами на воды Гудзона. Так, своими действиями летчику удалось спасти 155 человеческих жизней! И, тем не менее, сегодня ему приходится доказывать правоту этого выбора, внешне оставаясь спокойным и невозмутимым, несмотря на пережитое потрясение. Он уверен - только спокойствием, выдержкой и хладнокровием можно перевесить чашу мнения членов комиссии на свою сторону – сторону профессионального выбора и действия. И только ему одному известно, как даются и чего стоят эти спокойствие и уравновешенность. Оправданно ли рисковал ли он людскими жизнями? Чтобы их спасти, у него просто не было другого выхода.

Качество: UHD BDRemux 2160p
Формат: MKV
Видео кодек: HEVC
Аудио кодек: AC3

Видео: MPEG-H HEVC HDR Video, 3840x2160, 60.0 Mbit/s, 23.976 fps
Аудио#1: 48 kHz, AC3, 5.1, 448 Kbps | Дублированный |
Аудио#2: 48 kHz, TrueHD, 7.1, 6798 kbps | Оригинал |
Аудио#3: 48 kHz, AC3, 5.1, 640 kbps | Оригинал |

Релиз от:
скриншот  скриншот  скриншот  скриншот  скриншот  

General
Unique ID : 211079704394231154208128049267860928972 (0x9ECC78EAEA5C222FBEBBA5C0B91979CC)
Complete name : F:VideoSSDSully.2016.BDREMUX.2160p.4K.UltraHD.HEVC.HDR.ExKinoRay.mkv
Format : Matroska
Format version : Version 4 / Version 2
File size : 45.5 GiB
Duration : 1 h 35 min
Overall bit rate mode : Variable
Overall bit rate : 67.9 Mb/s
Encoded date : UTC 2017-10-19 00:29:20
Writing application : mkvmerge v16.0.0 ('Protest') 64-bit
Writing library : libebml v1.3.5 + libmatroska v1.4.8

Video
ID : 1
Format : HEVC
Format/Info : High Efficiency Video Coding
Format profile : Main 10@L5.1@High
Codec ID : V_MPEGH/ISO/HEVC
Duration : 1 h 35 min
Bit rate : 60.0 Mb/s
Width : 3 840 pixels
Height : 2 160 pixels
Display aspect ratio : 16:9
Frame rate mode : Constant
Frame rate : 23.976 (24000/1001) FPS
Color space : YUV
Chroma subsampling : 4:2:0 (Type 2)
Bit depth : 10 bits
Bits/(Pixel*Frame) : 0.302
Stream size : 40.2 GiB (88%)
Writing library : ATEME Titan File 3.7.8 (4.7.8.0)
Language : English
Default : Yes
Forced : No
Color range : Limited
Color primaries : BT.2020
Transfer characteristics : PQ
Matrix coefficients : BT.2020 non-constant
Mastering display color pri : R: x=0.680000 y=0.320000, G: x=0.265000 y=0.690000, B: x=0.150000 y=0.060000, White point: x=0.312700 y=0.329000
Mastering display luminance : min: 0.0050 cd/m2, max: 4000.0000 cd/m2
Maximum Content Light Level : 4000 cd/m2
Maximum Frame-Average Light : 290 cd/m2

Audio #1
ID : 2
Format : AC-3
Format/Info : Audio Coding 3
Format settings, Endianness : Big
Codec ID : A_AC3
Duration : 1 h 35 min
Bit rate mode : Constant
Bit rate : 448 kb/s
Channel(s) : 6 channels
Channel positions : Front: L C R, Side: L R, LFE
Sampling rate : 48.0 kHz
Frame rate : 31.250 FPS (1536 SPF)
Bit depth : 16 bits
Compression mode : Lossy
Stream size : 307 MiB (1%)
Title : Dub [License]
Language : Russian
Service kind : Complete Main
Default : Yes
Forced : No

Audio #2
ID : 3
Format : TrueHD
Format profile : TrueHD+Atmos / TrueHD
Codec ID : A_TRUEHD
Duration : 1 h 35 min
Bit rate mode : Variable
Bit rate : 6 798 kb/s
Maximum bit rate : 12.0 Mb/s
Channel(s) : Object Based / 8 channels
Channel positions : Object Based / Front: L C R, Side: L R, Back: L R, LFE
Sampling rate : / 48.0 kHz
Frame rate : 1 200.000 FPS (40 SPF)
Compression mode : Lossless
Stream size : 4.55 GiB (10%)
Title : Original
Language : English
Default : No
Forced : No

Audio #3
ID : 4
Format : AC-3
Format/Info : Audio Coding 3
Format settings, Endianness : Big
Codec ID : A_AC3
Duration : 1 h 35 min
Bit rate mode : Constant
Bit rate : 640 kb/s
Channel(s) : 6 channels
Channel positions : Front: L C R, Side: L R, LFE
Sampling rate : 48.0 kHz
Frame rate : 31.250 FPS (1536 SPF)
Bit depth : 16 bits
Compression mode : Lossy
Stream size : 439 MiB (1%)
Language : English
Service kind : Complete Main
Default : No
Forced : No

Text #1
ID : 5
Format : UTF-8
Codec ID : S_TEXT/UTF8
Codec ID/Info : UTF-8 Plain Text
Duration : 1 h 28 min
Bit rate : 4 b/s
Count of elements : 45
Stream size : 2.69 KiB (0%)
Title : Forced
Language : Russian
Default : Yes
Forced : No

Text #2
ID : 6
Format : UTF-8
Codec ID : S_TEXT/UTF8
Codec ID/Info : UTF-8 Plain Text
Duration : 1 h 31 min
Bit rate : 112 b/s
Count of elements : 1157
Stream size : 76.1 KiB (0%)
Title : Full
Language : Russian
Default : No
Forced : No

Text #3
ID : 7
Format : UTF-8
Codec ID : S_TEXT/UTF8
Codec ID/Info : UTF-8 Plain Text
Duration : 1 h 31 min
Bit rate : 71 b/s
Count of elements : 1524
Stream size : 48.3 KiB (0%)
Title : Full
Language : English
Default : No
Forced : No

Menu
00:00:00.000 : en:1
00:03:42.806 : en:2
00:07:22.108 : en:3
00:11:41.492 : en:4
00:16:04.046 : en:5
00:20:29.978 : en:6
00:25:36.034 : en:7
00:28:45.223 : en:8
00:34:19.974 : en:9
00:37:17.568 : en:10
00:40:45.817 : en:11
00:43:46.831 : en:12
00:48:13.931 : en:13
00:51:28.458 : en:14
00:54:45.696 : en:15
00:59:50.751 : en:16
01:03:44.109 : en:17
01:08:01.324 : en:18
01:11:43.462 : en:19
01:13:46.126 : en:20
01:17:03.406 : en:21
01:20:01.375 : en:22
01:22:32.234 : en:23
01:25:10.642 : en:24

piratbit.pw



Скачать Чудо на Гудзоне через торрент http://s012.radikal.ru/i319/1710/25/363abfb0432a.jpg Скачать фильм Чудо на Гудзоне через торрент бесплантно в хорошем качестве Описание: Герой Том Хэнкса - рядовой лётчик-профессионал, которому в сложнейшей ситуации пришлось принять единственно правильное решение, ... 10 10 2
Info! Золотая раздача, скачанное не засчитывается.
Торрент: Зарегистрирован [2017-10-19 14:15] · скачан: 48 раз
Статус: √ проверено
Размер: 45.48 GB
Как cкачать? Как скачать Чудо на Гудзоне через торрент | qTorrent

% Раздел Тема Автор DL S | L
Ultra HD (UHD: 2K, 4K, 8K) — видео сверхвысокой чёткости [ 46.37 GB ] Чудо на Гудзоне / Sully [2016 биография UHD BDRemux 2160p] DUB + AVO [Ю. Сербин] sheker187 Скачать
1 | 0
Фильмы с авторской озвучкой [ 2.01 GB ] Чудо на Гудзоне / Sully [2016 биография BDRip] [AVO] killermax2013 Скачать
1 | 0
Фильмы 2016 [DVDrip, WEB-DLRip, HDrip] (DUB, MVO) [ 1.42 GB ] Чудо на Гудзоне / Sully [2016 биография BDRip] - Twi7ter Скачать
1 | 0
Фильмы (Blu-ray, BD-Remux, HDDVD) [ 32.85 GB ] Чудо на Гудзоне / Sully [2016 биография Blu-ray disc 1080p CEE] Dub + Sub Rus + Original Eng voovaz Скачать
1 | 0
Фильмы 2016 [DVDrip, WEB-DLRip, HDrip] (DUB, MVO) [ 1.46 GB ] Чудо на Гудзоне / Sully [2016 биография BDRip] - [] Twi7ter Скачать
1 | 0
Фильмы [HD 720p, 1080p] (Хороший звук DUB, MVO) [ 8.19 GB ] Чудо на Гудзоне / Sully [2016 биография BDRip 1080p] - -Lexx- Скачать
1 | 0
R.G. Resident & PiratVoice - Фильмы, Видео [ 1.95 GB ] Чудо на Гудзоне / Sully [2016 биография BDRip-AVC] - R.G.Resident schultz Скачать
1 | 0

28-11-2019 20:33  

Отключить всю рекламу на сайте

    Дорогой пользователь! Огромная просьба, поблагодарите релизера, оцените раздачу и оставьте свои комментарий, если Вы скачали Чудо на Гудзоне через торрент бесплатно! Внесите свою лепту в развитие PiratBit!
    Комментировать посты могут только пользователи прошедшие не сложную регистрацию
    Показать сообщения:    

    Чудо на Гудзоне через торрент
    Скачать бесплатно Чудо на Гудзоне
    Чудо на Гудзоне скачать торрент
    Чудо на Гудзоне смотреть онлайн
    Cкачать фильм Чудо на Гудзоне бесплатно
    Чудо на Гудзоне скачать торрент в хорошем качестве
    Чудо на Гудзоне смотреть онлайн бесплатно в хорошем качестве


    Вы не можете начинать темы
    Вы не можете отвечать на сообщения
    Вы не можете редактировать свои сообщения
    Вы не можете удалять свои сообщения
    Вы не можете голосовать в опросах
    Вы не можете прикреплять файлы к сообщениям
    Вы можете скачивать файлы