1 сезон

1 сезон

iTunes

1

КиноПоиск HD

Кинопоиск HD

iTunes

13

1 сезон

RePack

30

Новинка

ВАЖНО

ИГРА 18+

pack

RePack

MK11
pack

Легкие деньги

RePack

jed

RePack

fifa19

RePack

RDR2

RePack

NEED FOR SPEED™ PAYBACK

4 сезон

9 сезон

Бесстыжие 9 сезон

Все сериалы

все сериалы на PB.wtf

RePack

FAR CRY 5
  
Magnet ссылка

Большая случка / L'étalon (Жан-Пьер Моки) [1970 г., Комедия, DVDRip-AVC, Авторский (одноголосый)] от ExKinoRay piratbit.pw

Большая случка через торрент piratbit.pw

Размер: 2.15 GB | Добавлен: 3 года 6 мес. назад | Торрент скачан:27 раз
Скачать  

18-10-2017 15:18 Большая случка Скачать торрент  

Большая случка / L'étalon
Год выпуска: 1970
Страна: Франция
Жанр: Комедия
Продолжительность: 01:25:42
Перевод: Авторский (одноголосый)

Режиссер: Жан-Пьер Моки

Премьера в мире: 13 февраля 1970

rating

В ролях: Бурвиль, Франсис Бланш, Жак Легра, Рене-Жан Шоффар, Мишель Лондайль, Ноэль Лери, Марсель Перес, Жан-Клод Ремолу, Франсис Терзьян, Доминик Зарди

Описание: Во время каникул ветеринар Уильям Шаминад спасает женщину, пытавшуюся свести счеты с жизнью… Тут у него и рождается идея облегчить участь жен, к которым охладели мужья, а изменять они не решаются из моральных соображений. Он открывает клинику, где под зорким оком «науки » страждущих обслуживают самые здоровые мужчины. Нет нужды говорить о том, что клиника вскоре начинает пользоваться бешеным успехом — тем более, что все это происходит в очаровательном курортном городке на берегу моря…

Доп. информация: Перевод: Авторский одноголосый (Сергей Козлов)

Качество: DVDRip-AVC
Формат: MKV
Видео кодек: MPEG4
Аудио кодек: AC3
Видео: MPEG-4 AVC, 3200 Кбит/с, 656x572@932x572, 25 кадров/сек
Аудио#1: Русский (AC3, 2 ch, 192 Кбит/с, 48 КГц)
Аудио#2: Французский (AC3, 2 ch, 192 Кбит/с, 48 КГц)
Релиз от:




raw [info]: 656x572p 64:45 @ 25/1 fps (cfr)
x264 [info]: using SAR=64/45
x264 [info]: using cpu capabilities: MMX2 SSE2Fast LZCNT
x264 [info]: profile High, level 4.1
x264 [info]: frame I:822 Avg QP:19.06 size: 60130
x264 [info]: frame P:25674 Avg QP:21.73 size: 32556
x264 [info]: frame B:102054 Avg QP:23.51 size: 11475
x264 [info]: consecutive B-frames: 1.5% 2.0% 6.1% 10.8% 6.9% 70.2% 1.8% 0.3% 0.1% 0.0% 0.1% 0.1% 0.0% 0.0% 0.0% 0.0% 0.0%
-----
Общее
Уникальный идентификатор : 172067778114501333271759153671523893907 (0x81730C733E8FA984BA16653EA7198293)
Полное имя : D:\Relizes\Etalon.1970.DVDRip-AVC.ExKinoRay.mkv
Формат : Matroska
Версия формата : Version 2
Размер файла : 2,15 Гбайт
Продолжительность : 1 ч. 25 м.
Общий поток : 3585 Кбит/сек
Дата кодирования : UTC 2017-10-18 01:39:33
Программа кодирования : mkvmerge v7.8.0 ('River Man') 32bit built on Apr 3 2015 12:11:22
Библиотека кодирования : libebml v1.3.1 + libmatroska v1.4.2

Видео
Идентификатор : 1
Формат : AVC
Формат/Информация : Advanced Video Codec
Профиль формата : High@L4.1
Параметр CABAC формата : Да
Параметр ReFrames формата : 14 кадров
Идентификатор кодека : V_MPEG4/ISO/AVC
Продолжительность : 1 ч. 25 м.
Битрейт : 3200 Кбит/сек
Ширина : 656 пикселей
Высота : 572 пикселя
Соотношение сторон : 16:10
Соотношение сторон в оригинале : 16:10
Режим частоты кадров : Постоянный
Частота кадров : 25,000 кадров/сек
Цветовое пространство : YUV
Субдискретизация насыщенности : 4:2:0
Битовая глубина : 8 бит
Тип развёртки : Прогрессивная
Бит/(Пиксели*Кадры) : 0.341
Размер потока : 1,87 Гбайт (87%)
Библиотека кодирования : x264 core 148 r2638 7599210
Настройки программы : cabac=1 / ref=14 / deblock=1:-2:-2 / analyse=0x3:0x133 / me=umh / subme=10 / psy=1 / psy_rd=1.05:0.15 / mixed_ref=1 / me_range=32 / chroma_me=1 / trellis=2 / 8x8dct=1 / cqm=0 / deadzone=21,11 / fast_pskip=0 / chroma_qp_offset=-3 / threads=4 / lookahead_threads=1 / sliced_threads=0 / nr=0 / decimate=0 / interlaced=0 / bluray_compat=0 / constrained_intra=0 / bframes=16 / b_pyramid=2 / b_adapt=2 / b_bias=0 / direct=3 / weightb=1 / open_gop=0 / weightp=2 / keyint=250 / keyint_min=25 / scenecut=40 / intra_refresh=0 / rc=2pass / mbtree=0 / bitrate=3200 / ratetol=1.0 / qcomp=0.60 / qpmin=0 / qpmax=69 / qpstep=4 / cplxblur=20.0 / qblur=0.5 / ip_ratio=1.40 / pb_ratio=1.30 / aq=1:1.00
Язык : English
Default : Да
Forced : Нет
Цветовой диапазон : Limited
Основные цвета : BT.601 NTSC
Характеристики трансфера : BT.601
Коэффициенты матрицы : BT.601

Аудио #1
Идентификатор : 2
Формат : AC-3
Формат/Информация : Audio Coding 3
Расширение режима : CM (complete main)
Параметр Endianness формата : Big
Идентификатор кодека : A_AC3
Продолжительность : 1 ч. 25 м.
Вид битрейта : Постоянный
Битрейт : 192 Кбит/сек
Каналы : 2 канала
Расположение каналов : Front: L R
Частота : 48,0 КГц
Частота кадров : 31,250 кадров/сек (1536 spf)
Метод сжатия : С потерями
Размер потока : 118 Мбайт (5%)
Язык : Russian
Default : Да
Forced : Нет

Аудио #2
Идентификатор : 3
Формат : AC-3
Формат/Информация : Audio Coding 3
Расширение режима : CM (complete main)
Параметр Endianness формата : Big
Идентификатор кодека : A_AC3
Продолжительность : 1 ч. 25 м.
Вид битрейта : Постоянный
Битрейт : 192 Кбит/сек
Каналы : 2 канала
Расположение каналов : Front: L R
Частота : 48,0 КГц
Частота кадров : 31,250 кадров/сек (1536 spf)
Метод сжатия : С потерями
Размер потока : 118 Мбайт (5%)
Язык : French
Default : Нет
Forced : Нет

piratbit.pw



Скачать Большая случка через торрент http://s019.radikal.ru/i618/1710/d2/3537326f6f76.jpg Скачать фильм Большая случка через торрент бесплантно в хорошем качестве Описание: Во время каникул ветеринар Уильям Шаминад спасает женщину, пытавшуюся свести счеты с жизнью… Тут у него и рождается идея ... 10 10 2
Info! Золотая раздача, скачанное не засчитывается.
Торрент: Зарегистрирован [2017-10-18 15:18] · скачан: 27 раз
Статус: √ проверено
Размер: 2.15 GB
Как cкачать? Как скачать Большая случка через торрент | UTorrent

28-11-2019 20:33  

Отключить всю рекламу на сайте

18-10-2017 16:09 Большая случка Скачать торрент  

Топик был перенесен из форума Оформление раздач (Кино, Видео и ТВ) в форум Фильмы с авторской озвучкой


-Lexx-piratbit.pw



    Дорогой пользователь! Огромная просьба, поблагодарите релизера, оцените раздачу и оставьте свои комментарий, если Вы скачали Большая случка через торрент бесплатно! Внесите свою лепту в развитие PiratBit!
    Комментировать посты могут только пользователи прошедшие не сложную регистрацию
    Показать сообщения:    

    Большая случка через торрент
    Скачать бесплатно Большая случка
    Большая случка скачать торрент
    Большая случка смотреть онлайн
    Cкачать фильм Большая случка бесплатно
    Большая случка скачать торрент в хорошем качестве
    Большая случка смотреть онлайн бесплатно в хорошем качестве


    Вы не можете начинать темы
    Вы не можете отвечать на сообщения
    Вы не можете редактировать свои сообщения
    Вы не можете удалять свои сообщения
    Вы не можете голосовать в опросах
    Вы не можете прикреплять файлы к сообщениям
    Вы можете скачивать файлы