Ссылка на приватное зеркало всего за 1$. Внимание количество ограничено!!!

iTunes

iTunes

iTunes

1

iTunes

iTunes

iTunes

iTunes

iTunes

30
pack

Новость дня

ВАЖНО

!!Акция!!

Alien_RageХит недели

RePack

Resident Evil 21

ИГРА 18+

pack

RePack

jed

!!Акция!!

Alien_Rage

RePack

fifa19

RePack

Assassins Creed: Odyssey

RePack

NEED FOR SPEED™ PAYBACK

4 сезон

9 сезон

Бесстыжие 9 сезон

Все сериалы

все сериалы на PB.wtf

RePack

FAR CRY 5
  

Долгий путь Билли Линна в перерыве футбольного матча / Billy Lynn's Long Halftime Walk (Энг Ли) [2016, драма, военный, UHD BDRemux 2160p] MVO [Лицензия BD EUR] piratbit.pw

Долгий путь Билли Линна в перерыве футбольного матча через торрент piratbit.pw

Размер: 71.95 GB | Добавлен: 2 года 5 мес. назад | Торрент скачан:25 раз
Скачать  

18-10-2017 14:31 Долгий путь Билли Линна в перерыве футбольного матча Скачать торрент  

Долгий путь Билли Линна в перерыве футбольного матча /
Billy Lynn's Long Halftime Walk
Год выпуска: 2016
Страна: Великобритания, Китай, США
Жанр: драма, военный
Продолжительность: 01:52:46
Перевод: Профессиональный (многоголосный) Лицензия BD EUR
Субтитры: Русские, Английские, Украинские

Режиссер: Энг Ли

rating

В ролях:

Джо Элвин, Гаррет Хедлунд, Артуро Кастро, Мэйсон Ли, Астро, Бо Напп, Исмаэль Круз, Барни Харрис, Вин Дизель, Стив Мартин

Описание:

В 2007 году 19-летний солдат Билли Линн и его взвод вступают в бой в Ираке. Бой снимают военные журналисты, кадры расходятся по всем новостям. Билли и его боевые товарищи становятся национальными героями и возвращаются в Америку на две недели для промо-тура, кульминацией которого становится шоу в перерыве футбольного матча в День благодарения. А после него они должны снова отправиться на войну.

Качество: UHD BDRemux 2160p
Формат: MKV
Видео кодек: HEVC
Аудио кодек: AC3

Видео: HEVC/H.265, 3840x2160p, (16:9), 86.4 Mb/s, 59.940 FPS
Аудио#1: AC3, 6 ch, 640 kbps - Русский
Аудио#2: TrueHD-Atmos, 8 ch, 4024 kbps - Английский
скриншот  скриншот  скриншот  скриншот  

General
Unique ID : 224955281996035638353046306245410662567 (0xA93CCFB63BF7D663B66B68057339A8A7)
Complete name : BILLY_LYNS_LHW_UHD_HDR_RMX-BLUEBIRD.mkv
Format : Matroska
Format version : Version 4 / Version 2
File size : 72.0 GiB
Duration : 1 h 52 min
Overall bit rate mode : Variable
Overall bit rate : 91.3 Mb/s
Movie name : BILLY_LYNS_LHW_UHD_HDR_RMX-BLUEBIRD
Encoded date : UTC 2017-10-12 14:53:43
Writing application : mkvmerge v16.0.0 ('Protest') 64-bit
Writing library : libebml v1.3.5 + libmatroska v1.4.8
Cover : Yes
Attachments : cover.png

Video
ID : 1
Format : HEVC
Format/Info : High Efficiency Video Coding
Format profile : Main 10@L5.1@High
Codec ID : V_MPEGH/ISO/HEVC
Duration : 1 h 52 min
Bit rate : 86.4 Mb/s
Width : 3 840 pixels
Height : 2 160 pixels
Display aspect ratio : 16:9
Frame rate mode : Constant
Frame rate : 59.940 (60000/1001) FPS
Color space : YUV
Chroma subsampling : 4:2:0 (Type 2)
Bit depth : 10 bits
Bits/(Pixel*Frame) : 0.174
Stream size : 68.1 GiB (95%)
Title : BILLY_LYNS_LHW_UHD_HDR_RMX-BLUEBIRD
Default : Yes
Forced : No
Color range : Limited
Color primaries : BT.2020
Transfer characteristics : SMPTE ST 2084
Matrix coefficients : BT.2020 non-constant
Mastering display color primaries : R: x=0.680000 y=0.320000, G: x=0.265000 y=0.690000, B: x=0.150000 y=0.060000, White point: x=0.312700 y=0.329000
Mastering display luminance : min: 0.0050 cd/m2, max: 4000.0000 cd/m2
Maximum Content Light Level : 2086 cd/m2
Maximum Frame-Average Light Level : 997 cd/m2

Audio #1
ID : 2
Format : AC-3
Format/Info : Audio Coding 3
Format settings, Endianness : Big
Codec ID : A_AC3
Duration : 1 h 52 min
Bit rate mode : Constant
Bit rate : 640 kb/s
Channel(s) : 6 channels
Channel positions : Front: L C R, Side: L R, LFE
Sampling rate : 48.0 kHz
Frame rate : 31.250 FPS (1536 SPF)
Bit depth : 16 bits
Compression mode : Lossy
Stream size : 516 MiB (1%)
Title : [MVO] DD 5.1 @ 640 kbps
Language : Russian
Service kind : Complete Main
Default : Yes
Forced : No

Audio #2
ID : 3
Format : TrueHD
Format profile : TrueHD+Atmos / TrueHD
Codec ID : A_TRUEHD
Duration : 1 h 52 min
Bit rate mode : Variable
Bit rate : 4 024 kb/s
Maximum bit rate : 8 145 kb/s
Channel(s) : Object Based / 8 channels
Channel positions : Object Based / Front: L C R, Side: L R, Back: L R, LFE
Sampling rate : / 48.0 kHz
Frame rate : 1 200.000 FPS (40 SPF)
Compression mode : Lossless
Stream size : 3.17 GiB (4%)
Title : [ORIGINAL] ATMOS 7.1 @ 4664 kbps
Language : English
Default : No
Forced : No

Text #1
ID : 4
Format : PGS
Codec ID : S_HDMV/PGS
Codec ID/Info : Picture based subtitle format used on BDs/HD-DVDs
Duration : 1 h 50 min
Bit rate : 59.1 kb/s
Count of elements : 3862
Stream size : 46.8 MiB (0%)
Title : Full-length
Language : Russian
Default : No
Forced : No

Text #2
ID : 5
Format : PGS
Codec ID : S_HDMV/PGS
Codec ID/Info : Picture based subtitle format used on BDs/HD-DVDs
Duration : 1 h 50 min
Bit rate : 57.7 kb/s
Count of elements : 3860
Stream size : 45.7 MiB (0%)
Title : Full-length
Language : Ukrainian
Default : No
Forced : No

Text #3
ID : 6
Format : PGS
Codec ID : S_HDMV/PGS
Codec ID/Info : Picture based subtitle format used on BDs/HD-DVDs
Duration : 1 h 45 min
Bit rate : 77.4 kb/s
Count of elements : 4318
Stream size : 58.6 MiB (0%)
Title : Full-length
Language : English
Default : No
Forced : No

Menu
00:00:00.000 : en:Chapter 1
00:06:05.848 : en:Chapter 2
00:13:21.884 : en:Chapter 3
00:20:11.210 : en:Chapter 4
00:26:24.532 : en:Chapter 5
00:31:10.485 : en:Chapter 6
00:39:05.393 : en:Chapter 7
00:48:51.929 : en:Chapter 8
00:55:58.588 : en:Chapter 9
01:04:18.337 : en:Chapter 10
01:10:16.679 : en:Chapter 11
01:17:14.212 : en:Chapter 12
01:22:08.473 : en:Chapter 13
01:29:13.264 : en:Chapter 14
01:35:21.582 : en:Chapter 15
01:42:52.432 : en:Chapter 16

piratbit.pw



Скачать Долгий путь Билли Линна в перерыве футбольного матча через торрент http://s018.radikal.ru/i528/1710/3f/3811a388b277.jpg Скачать фильм Долгий путь Билли Линна в перерыве футбольного матча через торрент бесплантно в хорошем качестве Описание: В 2007 году 19-летний солдат Билли Линн и его взвод вступают в бой в Ираке. Бой снимают военные журналисты, кадры расходятся по ... 10 10 4
Info! Золотая раздача, скачанное не засчитывается.
Торрент: Зарегистрирован [2017-10-18 14:31] · скачан: 25 раз
Статус: √ проверено
Размер: 71.95 GB
Как cкачать? Как скачать Долгий путь Билли Линна в перерыве футбольного матча через торрент | qTorrent

28-11-2019 20:33  

Отключить всю рекламу на сайте

    Дорогой пользователь! Огромная просьба, поблагодарите релизера, оцените раздачу и оставьте свои комментарий, если Вы скачали Долгий путь Билли Линна в перерыве футбольного матча через торрент бесплатно! Внесите свою лепту в развитие PiratBit!
    Комментировать посты могут только пользователи прошедшие не сложную регистрацию
    Показать сообщения:    

    Долгий путь Билли Линна в перерыве футбольного матча через торрент
    Скачать бесплатно Долгий путь Билли Линна в перерыве футбольного матча
    Долгий путь Билли Линна в перерыве футбольного матча скачать торрент
    Долгий путь Билли Линна в перерыве футбольного матча смотреть онлайн
    Cкачать фильм Долгий путь Билли Линна в перерыве футбольного матча бесплатно
    Долгий путь Билли Линна в перерыве футбольного матча скачать торрент в хорошем качестве
    Долгий путь Билли Линна в перерыве футбольного матча смотреть онлайн бесплатно в хорошем качестве


    Вы не можете начинать темы
    Вы не можете отвечать на сообщения
    Вы не можете редактировать свои сообщения
    Вы не можете удалять свои сообщения
    Вы не можете голосовать в опросах
    Вы не можете прикреплять файлы к сообщениям
    Вы можете скачивать файлы