Ссылка на приватное зеркало всего за 1$. Внимание количество ограничено!!!

iTunes

iTunes

iTunes

1

iTunes

iTunes

iTunes

iTunes

iTunes

30
pack

Новость дня

ВАЖНО

!!Акция!!

Alien_RageХит недели

RePack

Resident Evil 21

ИГРА 18+

pack

RePack

jed

!!Акция!!

Alien_Rage

RePack

fifa19

RePack

Assassins Creed: Odyssey

RePack

NEED FOR SPEED™ PAYBACK

4 сезон

9 сезон

Бесстыжие 9 сезон

Все сериалы

все сериалы на PB.wtf

RePack

FAR CRY 5
  

Отряд самоубийц / Suicide Squad (Дэвид Эйр) [2016, Фантастика, боевик, триллер, комедия, криминал, приключения, UHD BDRemux 2160p] DUB+AVO [Лицензия] piratbit.pw

Отряд самоубийц через торрент piratbit.pw

Размер: 48.19 GB | Добавлен: 2 года 5 мес. назад | Торрент скачан:117 раз
Скачать  

16-10-2017 14:23 Отряд самоубийц Скачать торрент  

Отряд самоубийц / Suicide SquadГод выпуска: 2016
Страна: США
Жанр: Фантастика, боевик, триллер, комедия, криминал, приключения
Продолжительность: 02:02:53
Перевод:

#1: Дублированный | Лицензия Blu-Ray CEE
#2: Авторский | А. Матвеев

Субтитры: Русские (forced, full), английские

Режиссер: Дэвид Эйр

rating

В ролях:

Марго Робби, Уилл Смит, Джаред Лето, Джай Кортни, Кара Делевинь, Джей Эрнандес, Юэль Киннаман, Виола Дэвис

Описание:

После того, как Супермен напоролся на несовместимые с жизнью обстоятельства, в Метро-Сити наступили смутные времена. Налоги, катаклизмы, покемоны, бандитизм и недобор в армию. С последним мириться было нельзя и за дело взялся знающий человек - местный военком с добрым лицом тети Тани из передачи "Спокойной ночи, малыши". Она собрала всех гопников, тунеядцев, бомжей и калек в районе и определила их в добровольный отряд дружинников "Городские хризантемы". Все вместе они вступают в кровавую стычку с бандой древних сущностей из потустороннего астрала, терроризирующих торговые палатки выходцев из солнечного Готэма, а также совершают еще множество глупых подвигов.

Качество: UHD BDRemux 2160p
Формат: MKV
Видео кодек: HEVC
Аудио кодек: AC3

Видео: MPEG-H HEVC HDR Video, 3840x2160, 51.0 Mbit/s, 23.976 fps
Аудио#1: 48 kHz, AC3, 5.1, 448 Kbps | Дублированный |
Аудио#2: 48 kHz, AC3, 5.1, 448 Kbps | Авторский |
Аудио#3: 48 kHz, TrueHD, 7.1, 3800 kbps | Оригинал |
Аудио#4: 48 kHz, AC3, 5.1, 384 kbps | Оригинал |

Релиз от:
скриншот  скриншот  скриншот  скриншот  

скриншот  скриншот  скриншот  скриншот  

General
Unique ID : 196519097731062564278682693555676110979 (0x93D8339544FCA49CB879F7F1F19DE083)
Complete name : F:VideoSSDSuicide.Squad.2016.BDREMUX.2160p.4K.UltraHD.HEVC.HDR.ExKinoRay.mkv
Format : Matroska
Format version : Version 4 / Version 2
File size : 48.2 GiB
Duration : 2 h 2 min
Overall bit rate mode : Variable
Overall bit rate : 56.1 Mb/s
Encoded date : UTC 2017-10-16 12:56:20
Writing application : mkvmerge v16.0.0 ('Protest') 64-bit
Writing library : libebml v1.3.5 + libmatroska v1.4.8

Video
ID : 1
Format : HEVC
Format/Info : High Efficiency Video Coding
Format profile : Main 10@L5.1@High
Codec ID : V_MPEGH/ISO/HEVC
Duration : 2 h 2 min
Bit rate : 51.0 Mb/s
Width : 3 840 pixels
Height : 2 160 pixels
Display aspect ratio : 16:9
Frame rate mode : Constant
Frame rate : 23.976 (24000/1001) FPS
Color space : YUV
Chroma subsampling : 4:2:0 (Type 2)
Bit depth : 10 bits
Bits/(Pixel*Frame) : 0.256
Stream size : 43.8 GiB (91%)
Writing library : ATEME Titan File 3.7.6 (4.7.6.101)
Language : English
Default : Yes
Forced : No
Color range : Limited
Color primaries : BT.2020
Transfer characteristics : PQ
Matrix coefficients : BT.2020 non-constant
Mastering display color pri : R: x=0.680000 y=0.320000, G: x=0.265000 y=0.690000, B: x=0.150000 y=0.060000, White point: x=0.312700 y=0.329000
Mastering display luminance : min: 0.0050 cd/m2, max: 4000.0000 cd/m2
Maximum Content Light Level : 902 cd/m2
Maximum Frame-Average Light : 182 cd/m2

Audio #1
ID : 2
Format : AC-3
Format/Info : Audio Coding 3
Format settings, Endianness : Big
Codec ID : A_AC3
Duration : 2 h 2 min
Bit rate mode : Constant
Bit rate : 448 kb/s
Channel(s) : 6 channels
Channel positions : Front: L C R, Side: L R, LFE
Sampling rate : 48.0 kHz
Frame rate : 31.250 FPS (1536 SPF)
Bit depth : 16 bits
Compression mode : Lossy
Stream size : 394 MiB (1%)
Title : Dub [License]
Language : Russian
Service kind : Complete Main
Default : Yes
Forced : No

Audio #2
ID : 3
Format : AC-3
Format/Info : Audio Coding 3
Format settings, Endianness : Big
Codec ID : A_AC3
Duration : 2 h 2 min
Bit rate mode : Constant
Bit rate : 448 kb/s
Channel(s) : 6 channels
Channel positions : Front: L C R, Side: L R, LFE
Sampling rate : 48.0 kHz
Frame rate : 31.250 FPS (1536 SPF)
Bit depth : 16 bits
Compression mode : Lossy
Stream size : 394 MiB (1%)
Title : AVO [Matveev]
Language : Russian
Service kind : Complete Main
Default : No
Forced : No

Audio #3
ID : 4
Format : TrueHD
Format profile : TrueHD+Atmos / TrueHD
Codec ID : A_TRUEHD
Duration : 2 h 2 min
Bit rate mode : Variable
Bit rate : 3 800 kb/s
Maximum bit rate : 5 847 kb/s
Channel(s) : Object Based / 8 channels
Channel positions : Object Based / Front: L C R, Side: L R, Back: L R, LFE
Sampling rate : / 48.0 kHz
Frame rate : 1 200.000 FPS (40 SPF)
Compression mode : Lossless
Stream size : 3.26 GiB (7%)
Title : Original
Language : English
Default : No
Forced : No

Audio #4
ID : 5
Format : AC-3
Format/Info : Audio Coding 3
Format settings, Endianness : Big
Codec ID : A_AC3
Duration : 2 h 2 min
Bit rate mode : Constant
Bit rate : 384 kb/s
Channel(s) : 6 channels
Channel positions : Front: L C R, Side: L R, LFE
Sampling rate : 48.0 kHz
Frame rate : 31.250 FPS (1536 SPF)
Bit depth : 16 bits
Compression mode : Lossy
Stream size : 338 MiB (1%)
Language : English
Service kind : Complete Main
Default : No
Forced : No

Text #1
ID : 6
Format : UTF-8
Codec ID : S_TEXT/UTF8
Codec ID/Info : UTF-8 Plain Text
Duration : 1 h 51 min
Bit rate : 5 b/s
Count of elements : 102
Stream size : 4.42 KiB (0%)
Title : Forced [iTunes]
Language : Russian
Default : Yes
Forced : No

Text #2
ID : 7
Format : UTF-8
Codec ID : S_TEXT/UTF8
Codec ID/Info : UTF-8 Plain Text
Duration : 1 h 54 min
Bit rate : 8 b/s
Count of elements : 66
Stream size : 6.87 KiB (0%)
Title : Forced [Matveev]
Language : Russian
Default : No
Forced : No

Text #3
ID : 8
Format : UTF-8
Codec ID : S_TEXT/UTF8
Codec ID/Info : UTF-8 Plain Text
Duration : 2 h 2 min
Bit rate : 70 b/s
Count of elements : 1388
Stream size : 63.1 KiB (0%)
Title : Full [iTunes]
Language : Russian
Default : No
Forced : No

Text #4
ID : 9
Format : UTF-8
Codec ID : S_TEXT/UTF8
Codec ID/Info : UTF-8 Plain Text
Duration : 1 h 55 min
Bit rate : 46 b/s
Count of elements : 1447
Stream size : 39.2 KiB (0%)
Title : Full
Language : English
Default : No
Forced : No

Menu
00:00:00.000 : en:
00:09:07.505 : en:
00:19:03.726 : en:
00:29:27.140 : en:
00:39:17.313 : en:
00:50:21.227 : en:
01:00:10.106 : en:
01:11:46.928 : en:
01:22:46.128 : en:
01:32:01.099 : en:
01:39:21.831 : en:
01:52:27.991 : en:

piratbit.pw



Скачать Отряд самоубийц через торрент http://s41.radikal.ru/i091/1710/4a/f09faaec8484.jpg Скачать фильм Отряд самоубийц через торрент бесплантно в хорошем качестве Описание: После того, как Супермен напоролся на несовместимые с жизнью обстоятельства, в Метро-Сити наступили смутные времена. Налоги, ... 9 10 10
Info! Золотая раздача, скачанное не засчитывается.
Торрент: Зарегистрирован [2017-10-16 14:23] · скачан: 117 раз
Статус: √ проверено
Размер: 48.19 GB
Как cкачать? Как скачать Отряд самоубийц через торрент | qTorrent

% Раздел Тема Автор DL S | L
Ultra HD (UHD: 2K, 4K, 8K) — видео сверхвысокой чёткости [ 28.35 GB ] Отряд самоубийц / Suicide Squad [2016 UHD BDRip 2160p SDR] DUB sheker187 Скачать
1 | 0
Ultra HD (UHD: 2K, 4K, 8K) — видео сверхвысокой чёткости [ 58.32 GB ] Отряд самоубийц / Suicide Squad [2016 UHD Blu-Ray EUR 2160p] - [] sheker187 Скачать
1 | 0
Ultra HD (UHD: 2K, 4K, 8K) — видео сверхвысокой чёткости [ 52.07 GB ] Отряд самоубийц / Suicide Squad [2016 UHD BDRemux 2160p] DUB + AVO [А.Матвеев] sheker187 Скачать
1 | 0
Фильмы (Blu-ray, BD-Remux, HDDVD) [ 25.5 GB ] Отряд самоубийц / Suicide Squad [2016 BD Remux 1080p] [ Blu-Ray CEE] DUB+AVO bober100 Скачать
1 | 0
Фильмы (HD 720p, 1080p) (48-60 fps) [ 4.36 GB ] Отряд самоубийц / Suicide Squad [2016 BDRip 720p 60 fps от еnvy / NNNB] [Theatrical Cut] DUB еnvy Скачать
15 | 1
Ultra HD (UHD: 2K, 4K, 8K) — видео сверхвысокой чёткости [ 57.75 GB ] Отряд самоубийц / Suicide Squad [Расширенная версия/Extended Cut] [2016 UHD WEBRip 2160p] [USA Transfer] DUB [] bober100 Скачать
1 | 0
Фильмы с авторской озвучкой [ 2.19 GB ] Отряд самоубийц / Suicide Squad [2016 BDRip] [Расширенная версия / Extended cut] [AVO] killermax2013 Скачать
1 | 0

28-11-2019 20:33  

Отключить всю рекламу на сайте

16-10-2017 14:40 Отряд самоубийц Скачать торрент  

это что за описание фильма такое?))piratbit.pw



    Дорогой пользователь! Огромная просьба, поблагодарите релизера, оцените раздачу и оставьте свои комментарий, если Вы скачали Отряд самоубийц через торрент бесплатно! Внесите свою лепту в развитие PiratBit!
    Комментировать посты могут только пользователи прошедшие не сложную регистрацию
    Показать сообщения:    

    Отряд самоубийц через торрент
    Скачать бесплатно Отряд самоубийц
    Отряд самоубийц скачать торрент
    Отряд самоубийц смотреть онлайн
    Cкачать фильм Отряд самоубийц бесплатно
    Отряд самоубийц скачать торрент в хорошем качестве
    Отряд самоубийц смотреть онлайн бесплатно в хорошем качестве


    Вы не можете начинать темы
    Вы не можете отвечать на сообщения
    Вы не можете редактировать свои сообщения
    Вы не можете удалять свои сообщения
    Вы не можете голосовать в опросах
    Вы не можете прикреплять файлы к сообщениям
    Вы можете скачивать файлы