Ссылка на приватное зеркало всего за 1$. Внимание количество ограничено!!!

iTunes

iTunes

iTunes

1

iTunes

iTunes

iTunes

iTunes

iTunes

30
pack

Новость дня

ВАЖНО

!!Акция!!

Alien_RageХит недели

RePack

Resident Evil 21

ИГРА 18+

pack

RePack

jed

!!Акция!!

Alien_Rage

RePack

fifa19

RePack

Assassins Creed: Odyssey

RePack

NEED FOR SPEED™ PAYBACK

4 сезон

9 сезон

Бесстыжие 9 сезон

Все сериалы

все сериалы на PB.wtf

RePack

FAR CRY 5
  

Игра Джеральда / Gerald's Game (Майк Флэнеган / Mike Flanagan) [2017, США, ужасы, триллер, UHD WEBRip 2160p] MVO [FocusStudio] piratbit.pw

Игра Джеральда через торрент piratbit.pw

Раздают: 1 [ 0 KB/s ]
Размер: 20.19 GB | Добавлен: 2 года 5 мес. назад | Торрент скачан:153 раза
Скачать  

14-10-2017 17:02 Игра Джеральда Скачать торрент  

Игра Джеральда
Gerald's Game


Страна: США
Жанр: ужасы, триллер

Год выпуска: 2017
Продолжительность: 01:43:24

Перевод: Профессиональный (многоголосый, закадровый) [FocusStudio]
Субтитры: English, German, Spanish, French, Italian
Оригинальная аудиодорожка: английский

Режиссер: Майк Флэнеган / Mike Flanagan

В ролях: Карла Гуджино, Брюс Гринвуд, Генри Томас, Карел Стрёйкен, Кейт Сигел, Кьяра Аурелия, Натали Роерс, Гвендолин Муламба, Джон Артур, Tom Glynn, Кимберли Баттиста, Stu Cookson

Описание:
После того, как ее муж падает с сердечным приступом в разгаре интимной игры, молодая женщина остается прикованной к кровати. Но ее одиночество будет недолгим. Все страхи, которые она когда-либо испытывала в жизни, вернутся в одночасье в уединенный дом, мгновенно превратившийся в зловещую камеру пыток.



Релиз:

Автор рипа: stalkerok | Моя группа

Качество видео: WEBRip 2160p
Формат видео: MKV
Видео кодек: AVC
Аудио кодек: AC3
Видео: 27367 Кбит/сек, 3840x1608 (2.40:1), 23,976 кадр/сек, AVC
Аудио №1: русский, 192 Кбит/сек, 48 КГц, 2.0, AC3 (Ненормативная лексика)
Аудио №2: английский, 384 Кбит/сек, 48 КГц, 5.1, AC3

Общее
Уникальный идентификатор : 237033184465063603310520299378390569279 (0xB252EE476EB61D689AF963BB46CB913F)
Полное имя : M:\!Rips2017\Gerald's Game\Geralds.Game.2017.2160p.NF.WEBRip.DD5.1.x264-NTb.New-Team.mkv
Формат : Matroska
Версия формата : Version 4 / Version 2
Размер файла : 20,2 Гбайт
Продолжительность : 1 ч. 43 м.
Общий поток : 27,9 Мбит/сек
Дата кодирования : UTC 2017-10-14 16:48:11
Программа кодирования : mkvmerge v8.6.1 ('Flying') 64bit
Библиотека кодирования : libebml v1.3.3 + libmatroska v1.4.4

Видео
Идентификатор : 1
Формат : AVC
Формат/Информация : Advanced Video Codec
Профиль формата : High@L5.1
Параметр CABAC формата : Да
Параметр ReFrames формата : 7 кадров
Идентификатор кодека : V_MPEG4/ISO/AVC
Продолжительность : 1 ч. 43 м.
Битрейт : 27,4 Мбит/сек
Ширина : 3840 пикселей
Высота : 1608 пикселей
Соотношение сторон : 2,40:1
Режим частоты кадров : Постоянный
Частота кадров : 23,976 (24000/1001) кадра/сек
Цветовое пространство : YUV
Субдискретизация насыщенности : 4:2:0
Битовая глубина : 8 бит
Тип развёртки : Прогрессивная
Бит/(Пиксели*Кадры) : 0.185
Размер потока : 19,8 Гбайт (98%)
Библиотека кодирования : x264 core 144 r2525 40bb568
Настройки программы : cabac=1 / ref=7 / deblock=1:-3:-3 / analyse=0x3:0x133 / me=umh / subme=10 / psy=1 / psy_rd=1.00:0.00 / mixed_ref=1 / me_range=48 / chroma_me=1 / trellis=2 / 8x8dct=1 / cqm=0 / deadzone=21,11 / fast_pskip=0 / chroma_qp_offset=-2 / threads=24 / lookahead_threads=4 / sliced_threads=0 / nr=0 / decimate=0 / interlaced=0 / bluray_compat=0 / constrained_intra=0 / bframes=8 / b_pyramid=2 / b_adapt=2 / b_bias=0 / direct=3 / weightb=1 / open_gop=0 / weightp=2 / keyint=250 / keyint_min=23 / scenecut=40 / intra_refresh=0 / rc=crf / mbtree=0 / crf=19.0 / qcomp=0.60 / qpmin=0 / qpmax=69 / qpstep=4 / ip_ratio=1.30 / pb_ratio=1.20 / aq=3:0.80
Язык : English
Default : Да
Forced : Нет

Аудио #1
Идентификатор : 2
Формат : AC-3
Формат/Информация : Audio Coding 3
Расширение режима : CM (complete main)
Параметр Endianness формата : Big
Идентификатор кодека : A_AC3
Продолжительность : 1 ч. 43 м.
Вид битрейта : Постоянный
Битрейт : 192 Кбит/сек
Каналы : 2 канала
Расположение каналов : Front: L R
Частота : 48,0 КГц
Частота кадров : 31,250 кадров/сек (1536 spf)
Метод сжатия : С потерями
Размер потока : 142 Мбайт (1%)
Заголовок : FocusStudio
Язык : Russian
Default : Да
Forced : Нет

Аудио #2
Идентификатор : 3
Формат : AC-3
Формат/Информация : Audio Coding 3
Расширение режима : CM (complete main)
Параметр Endianness формата : Big
Идентификатор кодека : A_AC3
Продолжительность : 1 ч. 43 м.
Вид битрейта : Постоянный
Битрейт : 384 Кбит/сек
Каналы : 6 каналов
Расположение каналов : Front: L C R, Side: L R, LFE
Частота : 48,0 КГц
Частота кадров : 31,250 кадров/сек (1536 spf)
Метод сжатия : С потерями
Размер потока : 284 Мбайт (1%)
Язык : English
Default : Нет
Forced : Нет

Текст #1
Идентификатор : 4
Формат : UTF-8
Идентификатор кодека : S_TEXT/UTF8
Идентификатор кодека/Информация : UTF-8 Plain Text
Продолжительность : 1 ч. 36 м.
Битрейт : 48 бит/сек
Count of elements : 1060
Размер потока : 34,2 Кбайт (0%)
Язык : English
Default : Нет
Forced : Нет

Текст #2
Идентификатор : 5
Формат : UTF-8
Идентификатор кодека : S_TEXT/UTF8
Идентификатор кодека/Информация : UTF-8 Plain Text
Продолжительность : 1 ч. 42 м.
Битрейт : 45 бит/сек
Count of elements : 1012
Размер потока : 34,0 Кбайт (0%)
Язык : German
Default : Нет
Forced : Нет

Текст #3
Идентификатор : 6
Формат : UTF-8
Идентификатор кодека : S_TEXT/UTF8
Идентификатор кодека/Информация : UTF-8 Plain Text
Продолжительность : 1 ч. 42 м.
Битрейт : 40 бит/сек
Count of elements : 1016
Размер потока : 30,2 Кбайт (0%)
Язык : Spanish
Default : Нет
Forced : Нет

Текст #4
Идентификатор : 7
Формат : UTF-8
Идентификатор кодека : S_TEXT/UTF8
Идентификатор кодека/Информация : UTF-8 Plain Text
Продолжительность : 1 ч. 42 м.
Битрейт : 46 бит/сек
Count of elements : 1019
Размер потока : 34,5 Кбайт (0%)
Язык : French
Default : Нет
Forced : Нет

Текст #5
Идентификатор : 8
Формат : UTF-8
Идентификатор кодека : S_TEXT/UTF8
Идентификатор кодека/Информация : UTF-8 Plain Text
Продолжительность : 1 ч. 42 м.
Битрейт : 43 бит/сек
Count of elements : 984
Размер потока : 32,9 Кбайт (0%)
Язык : Italian
Default : Нет
Forced : Нет
скриншот   скриншот   скриншот   скриншот   скриншот   скриншот  
piratbit.pw



Скачать Игра Джеральда через торрент http://i6.imageban.ru/out/2017/09/18/2ff75c0c358795c5946784cc1680714d.png Скачать фильм Игра Джеральда через торрент бесплантно в хорошем качестве Описание:После того, как ее муж падает с сердечным приступом в разгаре интимной игры, молодая женщина остается прикованной к кровати. Но ее ... 10 10 3
Info! Золотая раздача, скачанное не засчитывается.
Торрент: Зарегистрирован [2017-10-14 17:02] · скачан: 153 раз
Статус: √ проверено
Размер: 20.19 GB
Как cкачать? Как скачать Игра Джеральда через торрент | qTorrent

28-11-2019 20:33  

Отключить всю рекламу на сайте

    Дорогой пользователь! Огромная просьба, поблагодарите релизера, оцените раздачу и оставьте свои комментарий, если Вы скачали Игра Джеральда через торрент бесплатно! Внесите свою лепту в развитие PiratBit!
    Комментировать посты могут только пользователи прошедшие не сложную регистрацию
    Показать сообщения:    

    Игра Джеральда через торрент
    Скачать бесплатно Игра Джеральда
    Игра Джеральда скачать торрент
    Игра Джеральда смотреть онлайн
    Cкачать фильм Игра Джеральда бесплатно
    Игра Джеральда скачать торрент в хорошем качестве
    Игра Джеральда смотреть онлайн бесплатно в хорошем качестве


    Вы не можете начинать темы
    Вы не можете отвечать на сообщения
    Вы не можете редактировать свои сообщения
    Вы не можете удалять свои сообщения
    Вы не можете голосовать в опросах
    Вы не можете прикреплять файлы к сообщениям
    Вы можете скачивать файлы