Ссылка на приватное зеркало нашего сайта всего за 1$. Внимание количество ограничено!!!

2 сезон

iTunes

iTunes

1

iTunes

iTunes

iTunes

WEBRip

iTunes

30
pack

Вам бонус

ВАЖНО

!!Акция!!

Alien_RageХит недели

RePack

Horizon Zero Dawn

ИГРА 18+

pack

RePack

jed

!!Акция!!

Alien_Rage

RePack

fifa19

RePack

Assassins Creed: Odyssey

RePack

NEED FOR SPEED™ PAYBACK

4 сезон

9 сезон

Бесстыжие 9 сезон

Все сериалы

все сериалы на PB.wtf

RePack

FAR CRY 5
  

Зверопой / Sing (Гарт Дженнингс) [2016 г., Мультфильм, драма, комедия, семейный, музыкальный, UHD BDRemux 2160p] DUB [Лицензия] piratbit.pw

Зверопой через торрент piratbit.pw

Размер: 42.38 GB | Добавлен: 2 года 11 мес. назад | Торрент скачан:57 раз
Скачать  

14-10-2017 07:00 Зверопой Скачать торрент  

Зверопой / SingГод выпуска: 2016
Страна: США
Жанр: Мультфильм, драма, комедия, семейный, музыкальный
Продолжительность: 01:47:54
Перевод: Дублированный | Лицензия
Субтитры: Русские (forced, full), английские

Режиссер: Гарт Дженнингс

rating

В ролях:

Мэттью МакКонахи, Риз Уизерспун, Сет МакФарлейн, Скарлетт Йоханссон, Джон С. Райлли, Тэрон Эджертон, Тори Келли, Дженнифер Сондерс, Дженнифер Хадсон, Гарт Дженнингс

Описание:

Будучи шестилетним ребёнком, Бастер Мун впервые посетил со своим отцом в театр, жалея о том, что не увидит футбольный матч. К счастью мюзикл ему понравился так, что с тех пор он полюбил театр. На день рождения бастру отец подарил городской оперный театр. Став взрослым, и начав самостоятельно руководить театром, Бастер терпит кризис в работе, кредиторы осаждают его, его идеи никому не нужны и кажутсяне убедителными. Тогда он решается организовать соревнование при участии новых талантов, с призом на сумму в тысячу долларов, чтобы вернуть зрителей в театр. Из-за ошибки его престарелой секретарши, сумма премии вырастает в сто раз, а рекламные листки улетают в окно. Заработать сто тысяч премии приходят многие, но Бастеру нужны только таланты-самородки, и он даже не знает, что пришли состязаться не за при в тысячу долларов, а за сто тысяч, которые ему и не снились никогда

Качество: UHD BDRemux 2160p
Формат: MKV
Видео кодек: HEVC
Аудио кодек: AC3

Видео: MPEG-H HEVC HDR Video, 3840x2160, 50.0 Mbit/s, 23.976 fps
Аудио#1: 48 kHz, AC3, 5.1, 640 Kbps | Дублированный | RUS |
Аудио#2: 48 kHz, TrueHD, 7.1, 4489 Kbps | Оригинал | ENG |
Аудио#3: 48 kHz, AC3, 5.1, 640 Kbps | Оригинал | ENG |

Релиз от:
скриншот  скриншот  скриншот  скриншот  скриншот  

General
Unique ID : 207248023343478348925730686629679346821 (0x9BEA8474CCCE996EA3B5F0B5F7FE3485)
Complete name : E:VideoSing.2016.BDREMUX.2160p.4K.UltraHD.HEVC.HDR.ExKinoRay.mkv
Format : Matroska
Format version : Version 4 / Version 2
File size : 42.4 GiB
Duration : 1 h 47 min
Overall bit rate mode : Variable
Overall bit rate : 56.2 Mb/s
Encoded date : UTC 2017-10-13 19:46:21
Writing application : mkvmerge v16.0.0 ('Protest') 64-bit
Writing library : libebml v1.3.5 + libmatroska v1.4.8

Video
ID : 1
Format : HEVC
Format/Info : High Efficiency Video Coding
Format profile : Main 10@L5.1@High
Codec ID : V_MPEGH/ISO/HEVC
Duration : 1 h 47 min
Bit rate : 50.0 Mb/s
Width : 3 840 pixels
Height : 2 160 pixels
Display aspect ratio : 16:9
Frame rate mode : Constant
Frame rate : 23.976 (24000/1001) FPS
Color space : YUV
Chroma subsampling : 4:2:0 (Type 2)
Bit depth : 10 bits
Bits/(Pixel*Frame) : 0.251
Stream size : 37.7 GiB (89%)
Writing library : ATEME Titan File 3.7.8 (4.7.8.0)
Language : English
Default : Yes
Forced : No
Color range : Limited
Color primaries : BT.2020
Transfer characteristics : PQ
Matrix coefficients : BT.2020 non-constant
Mastering display color pri : R: x=0.680000 y=0.320000, G: x=0.265000 y=0.690000, B: x=0.150000 y=0.060000, White point: x=0.312700 y=0.329000
Mastering display luminance : min: 0.0050 cd/m2, max: 1000.0000 cd/m2
Maximum Content Light Level : 833 cd/m2
Maximum Frame-Average Light : 296 cd/m2

Audio #1
ID : 2
Format : AC-3
Format/Info : Audio Coding 3
Format settings, Endianness : Big
Codec ID : A_AC3
Duration : 1 h 47 min
Bit rate mode : Constant
Bit rate : 640 kb/s
Channel(s) : 6 channels
Channel positions : Front: L C R, Side: L R, LFE
Sampling rate : 48.0 kHz
Frame rate : 31.250 FPS (1536 SPF)
Bit depth : 16 bits
Compression mode : Lossy
Stream size : 494 MiB (1%)
Title : Dub [License]
Language : Russian
Service kind : Complete Main
Default : Yes
Forced : No

Audio #2
ID : 3
Format : TrueHD
Format profile : TrueHD+Atmos / TrueHD
Codec ID : A_TRUEHD
Duration : 1 h 47 min
Bit rate mode : Variable
Bit rate : 4 889 kb/s
Maximum bit rate : 8 139 kb/s
Channel(s) : Object Based / 8 channels
Channel positions : Object Based / Front: L C R, Side: L R, Back: L R, LFE
Sampling rate : / 48.0 kHz
Frame rate : 1 200.000 FPS (40 SPF)
Compression mode : Lossless
Stream size : 3.68 GiB (9%)
Title : Original
Language : English
Default : No
Forced : No

Audio #3
ID : 4
Format : AC-3
Format/Info : Audio Coding 3
Format settings, Endianness : Big
Codec ID : A_AC3
Duration : 1 h 47 min
Bit rate mode : Constant
Bit rate : 640 kb/s
Channel(s) : 6 channels
Channel positions : Front: L C R, Side: L R, LFE
Sampling rate : 48.0 kHz
Frame rate : 31.250 FPS (1536 SPF)
Bit depth : 16 bits
Compression mode : Lossy
Stream size : 494 MiB (1%)
Language : English
Service kind : Complete Main
Default : No
Forced : No

Text #1
ID : 5
Format : UTF-8
Codec ID : S_TEXT/UTF8
Codec ID/Info : UTF-8 Plain Text
Duration : 1 h 38 min
Bit rate : 1 b/s
Count of elements : 29
Stream size : 817 Bytes (0%)
Title : Forced
Language : Russian
Default : Yes
Forced : No

Text #2
ID : 6
Format : UTF-8
Codec ID : S_TEXT/UTF8
Codec ID/Info : UTF-8 Plain Text
Duration : 1 h 39 min
Bit rate : 90 b/s
Count of elements : 1378
Stream size : 65.6 KiB (0%)
Title : Full
Language : Russian
Default : No
Forced : No

Text #3
ID : 7
Format : UTF-8
Codec ID : S_TEXT/UTF8
Codec ID/Info : UTF-8 Plain Text
Duration : 1 h 38 min
Bit rate : 58 b/s
Count of elements : 1411
Stream size : 42.6 KiB (0%)
Title : Full
Language : English
Default : No
Forced : No

Menu
00:00:00.000 : en:Chapter 1
00:04:29.352 : en:Chapter 2
00:10:36.469 : en:Chapter 3
00:14:04.677 : en:Chapter 4
00:18:32.653 : en:Chapter 5
00:25:14.721 : en:Chapter 6
00:30:04.052 : en:Chapter 7
00:35:11.776 : en:Chapter 8
00:40:07.405 : en:Chapter 9
00:44:36.131 : en:Chapter 10
00:50:26.648 : en:Chapter 11
00:55:36.207 : en:Chapter 12
01:04:40.710 : en:Chapter 13
01:14:03.981 : en:Chapter 14
01:19:17.961 : en:Chapter 15
01:23:59.159 : en:Chapter 16
01:26:56.461 : en:Chapter 17
01:30:38.266 : en:Chapter 18
01:34:47.181 : en:Chapter 19
01:40:16.010 : en:Chapter 20

piratbit.pw



Скачать Зверопой через торрент http://s56.radikal.ru/i154/1710/45/c1313faf0c2f.jpg Скачать фильм Зверопой через торрент бесплантно в хорошем качестве Описание: Будучи шестилетним ребёнком, Бастер Мун впервые посетил со своим отцом в театр, жалея о том, что не увидит футбольный матч. К ... 10 10 2
Info! Золотая раздача, скачанное не засчитывается.
Торрент: Зарегистрирован [2017-10-14 07:00] · скачан: 57 раз
Статус: √ проверено
Размер: 42.38 GB
Как cкачать? Как скачать Зверопой через торрент | qTorrent

% Раздел Тема Автор DL S | L
Зарубежные Мультфильмы (BDRip 1080p, 720p, Blu-ray, BD-Remux) [ 26.69 GB ] Зверопой / Sing [2016 Мультфильм музыкальный BD Remux 1080p] DUB [] bober100 Скачать
1 | 0
Иностранные мультфильмы [ 2.18 GB ] Зверопой / Sing [2016 мультфильм музыка HDRip "BD CEE" ] coc900 Скачать
1 | 0
Зарубежные Мультфильмы (BDRip 1080p, 720p, Blu-ray, BD-Remux) [ 10.46 GB ] Зверопой / Sing [2016 Мультфильм музыкальный BDRip 1080p] DUB [] bober100 Скачать
1 | 0
Иностранные мультфильмы [ 2.34 GB ] Зверопой / Sing [2016 мультфильм музыка BDRip-AVC] - [ Blu-Ray] - ExKinoRay Enigma2010 Скачать
2 | 0
3D Мультфильмы [ 6.74 GB ] Зверопой в 3D / Sing in 3D [2016 Мультфильм Музыка BDRip 1080p ] Анаглиф slaventi-69 Скачать
1 | 0
Иностранные мультфильмы [ 1.46 GB ] Зверопой / Sing [2016 мультфильм музыка BDRip] - [] Twi7ter Скачать
4 | 0
Зарубежные Мультфильмы (BDRip 1080p, 720p, Blu-ray, BD-Remux) [ 8.33 GB ] Зверопой / Sing [2016 мультфильм музыка BDRip 1080p от BLUEBIRD] [Dub + Sub rus eng] Quadropedia Скачать
1 | 0

28-11-2019 20:33  

Отключить всю рекламу на сайте

01-03-2018 07:54 Зверопой Скачать торрент  

Звук не успевает за фильмом.piratbit.pw



    Дорогой пользователь! Огромная просьба, поблагодарите релизера, оцените раздачу и оставьте свои комментарий, если Вы скачали Зверопой через торрент бесплатно! Внесите свою лепту в развитие PiratBit!
    Комментировать посты могут только пользователи прошедшие не сложную регистрацию
    Показать сообщения:    

    Зверопой через торрент
    Скачать бесплатно Зверопой
    Зверопой скачать торрент
    Зверопой смотреть онлайн
    Cкачать фильм Зверопой бесплатно
    Зверопой скачать торрент в хорошем качестве
    Зверопой смотреть онлайн бесплатно в хорошем качестве


    Вы не можете начинать темы
    Вы не можете отвечать на сообщения
    Вы не можете редактировать свои сообщения
    Вы не можете удалять свои сообщения
    Вы не можете голосовать в опросах
    Вы не можете прикреплять файлы к сообщениям
    Вы можете скачивать файлы