Ссылка на приватное зеркало всего за 1$. Внимание количество ограничено!!!

iTunes

iTunes

iTunes

1

iTunes

iTunes

iTunes

iTunes

iTunes

30
pack

$ от Little Big

ВАЖНО

!!Акция!!

Alien_RageХит недели

RePack

Resident Evil 21

ИГРА 18+

pack

RePack

jed

!!Акция!!

Alien_Rage

RePack

fifa19

RePack

Assassins Creed: Odyssey

RePack

NEED FOR SPEED™ PAYBACK

4 сезон

9 сезон

Бесстыжие 9 сезон

Все сериалы

все сериалы на PB.wtf

RePack

FAR CRY 5
  

По соображениям совести / Hacksaw Ridge (Мэл Гибсон) [2016, Драма, военный, история, UHD BDRemux 2160p] DUB [Лицензия] piratbit.pw

По соображениям совести через торрент piratbit.pw

Раздают: 1 [ 0 KB/s ]
Размер: 70.03 GB | Добавлен: 2 года 8 мес. назад | Торрент скачан:107 раз
Скачать  

13-10-2017 17:10 По соображениям совести Скачать торрент  

По соображениям совести / Hacksaw Ridge
Год выпуска: 2016
Страна: Австралия, США
Жанр: Драма, военный, история
Продолжительность: 02:19:19
Перевод: Дубляж [Лицензия]
Субтитры: Русские (forced, full), английские

Режиссер: Мэл Гибсон

rating

В ролях:

Эндрю Гарфилд, Ричард Пирос, Джейкоб Уорнер, Мило Гибсон, Дарси Брайс, Роман Геррьеро, Джеймс Лагтон, Касия Стелмах, Хьюго Уивинг, Рэйчел Гриффитс, Сэм Уортингтон, Тереза Палмер, Винс Вон

Описание:

В самый разгар Второй мировой войны молодой рабочий из американской провинции Десмонд Досс записывается добровольцем в армию. Проблема в том, что его религия отвергает насилие и запрещает брать в руки оружие. Десмонд становится полевым санитаром, однако его командиры требуют, чтобы Досс, как и любой солдат, научился метко стрелять. Пройдя через множество трудных испытаний, Десмонд оказывается в самом пекле боев за остров Окинава. Там, в кровавом аду, ему предстоит доказать себе и другим, чего он стоит на поле боя.

Качество: UHD BDRemux 2160p
Формат: MKV
Видео кодек: HEVC
Аудио кодек: AC3

Видео: MPEG-H HEVC HDR Video, 3840x2160, 66.6 Mbit/s, 23.976 fps
Аудио#1: 48 kHz, AC3, 5.1, 384 Kbps | Дублированный |
Аудио#2: 48 kHz, TrueHD, 7.1, 4304 kbps | Оригинал |
Аудио#3: 48 kHz, AC3, 5.1, 640 kbps | Оригинал |

Релиз от:
скриншот  скриншот  скриншот  скриншот  скриншот  

General
Unique ID : 232543215182222291897705878982388368115 (0xAEF231B3B4D9291894D96E6BB2F042F3)
Complete name : F:VideoSSDHacksaw.Ridge.2016.BDREMUX.2160p.4K.UltraHD.HEVC.HDR.ExKinoRay.mkv
Format : Matroska
Format version : Version 4 / Version 2
File size : 70.0 GiB
Duration : 2 h 19 min
Overall bit rate mode : Variable
Overall bit rate : 72.0 Mb/s
Encoded date : UTC 2017-10-13 14:33:23
Writing application : mkvmerge v16.0.0 ('Protest') 64-bit
Writing library : libebml v1.3.5 + libmatroska v1.4.8

Video
ID : 1
Format : HEVC
Format/Info : High Efficiency Video Coding
Format profile : Main 10@L5.1@High
Codec ID : V_MPEGH/ISO/HEVC
Duration : 2 h 19 min
Bit rate : 66.6 Mb/s
Width : 3 840 pixels
Height : 2 160 pixels
Display aspect ratio : 16:9
Frame rate mode : Constant
Frame rate : 23.976 (24000/1001) FPS
Color space : YUV
Chroma subsampling : 4:2:0 (Type 2)
Bit depth : 10 bits
Bits/(Pixel*Frame) : 0.335
Stream size : 64.8 GiB (92%)
Writing library : ATEME Titan KFE 3.7.3 (4.7.3.1003)
Language : English
Default : Yes
Forced : No
Color range : Limited
Color primaries : BT.2020
Transfer characteristics : PQ
Matrix coefficients : BT.2020 non-constant
Mastering display color pri : R: x=0.680000 y=0.320000, G: x=0.265000 y=0.690000, B: x=0.150000 y=0.060000, White point: x=0.312700 y=0.329000
Mastering display luminance : min: 0.0000 cd/m2, max: 1000.0000 cd/m2
Maximum Content Light Level : 1000 cd/m2
Maximum Frame-Average Light : 321 cd/m2

Audio #1
ID : 2
Format : AC-3
Format/Info : Audio Coding 3
Format settings, Endianness : Big
Codec ID : A_AC3
Duration : 2 h 19 min
Bit rate mode : Constant
Bit rate : 384 kb/s
Channel(s) : 6 channels
Channel positions : Front: L C R, Side: L R, LFE
Sampling rate : 48.0 kHz
Frame rate : 31.250 FPS (1536 SPF)
Bit depth : 16 bits
Compression mode : Lossy
Stream size : 383 MiB (1%)
Title : iTunes
Language : Russian
Service kind : Complete Main
Default : Yes
Forced : No

Audio #2
ID : 3
Format : TrueHD
Format profile : TrueHD+Atmos / TrueHD
Codec ID : A_TRUEHD
Duration : 2 h 19 min
Bit rate mode : Variable
Bit rate : 4 304 kb/s
Maximum bit rate : 8 544 kb/s
Channel(s) : Object Based / 8 channels
Channel positions : Object Based / Front: L C R, Side: L R, Back: L R, LFE
Sampling rate : / 48.0 kHz
Frame rate : 1 200.000 FPS (40 SPF)
Compression mode : Lossless
Stream size : 4.19 GiB (6%)
Title : Original
Language : English
Default : No
Forced : No

Audio #3
ID : 4
Format : AC-3
Format/Info : Audio Coding 3
Format settings, Endianness : Big
Codec ID : A_AC3
Duration : 2 h 19 min
Bit rate mode : Constant
Bit rate : 640 kb/s
Channel(s) : 6 channels
Channel positions : Front: L C R, Side: L R, LFE
Sampling rate : 48.0 kHz
Frame rate : 31.250 FPS (1536 SPF)
Bit depth : 16 bits
Compression mode : Lossy
Stream size : 638 MiB (1%)
Language : English
Service kind : Complete Main
Default : No
Forced : No

Text #1
ID : 5
Format : UTF-8
Codec ID : S_TEXT/UTF8
Codec ID/Info : UTF-8 Plain Text
Duration : 2 h 12 min
Bit rate : 2 b/s
Count of elements : 45
Stream size : 2.74 KiB (0%)
Title : Forced
Language : Russian
Default : Yes
Forced : No

Text #2
ID : 6
Format : UTF-8
Codec ID : S_TEXT/UTF8
Codec ID/Info : UTF-8 Plain Text
Duration : 2 h 10 min
Bit rate : 75 b/s
Count of elements : 1417
Stream size : 72.2 KiB (0%)
Title : Full
Language : Russian
Default : No
Forced : No

Text #3
ID : 7
Format : UTF-8
Codec ID : S_TEXT/UTF8
Codec ID/Info : UTF-8 Plain Text
Duration : 2 h 8 min
Bit rate : 48 b/s
Count of elements : 1342
Stream size : 46.1 KiB (0%)
Title : Full
Language : English
Default : No
Forced : No

Text #4
ID : 8
Format : UTF-8
Codec ID : S_TEXT/UTF8
Codec ID/Info : UTF-8 Plain Text
Duration : 2 h 9 min
Bit rate : 55 b/s
Count of elements : 1655
Stream size : 53.2 KiB (0%)
Title : SDH
Language : English
Default : No
Forced : No

Text #5
ID : 9
Format : UTF-8
Codec ID : S_TEXT/UTF8
Codec ID/Info : UTF-8 Plain Text
Duration : 2 h 10 min
Bit rate : 71 b/s
Count of elements : 1656
Stream size : 68.3 KiB (0%)
Title : SDH-Colored
Language : English
Default : No
Forced : No

Menu
00:00:00.000 : en:00:00:00.000
00:09:18.766 : en:00:09:18.766
00:18:41.996 : en:00:18:41.996
00:26:34.510 : en:00:26:34.510
00:33:00.562 : en:00:33:00.562
00:40:04.152 : en:00:40:04.152
00:50:07.212 : en:00:50:07.212
00:57:01.543 : en:00:57:01.543
01:04:21.649 : en:01:04:21.649
01:17:50.207 : en:01:17:50.207
01:23:58.700 : en:01:23:58.700
01:31:21.726 : en:01:31:21.726
01:39:02.812 : en:01:39:02.812
01:46:07.569 : en:01:46:07.569
01:59:48.306 : en:01:59:48.306
02:07:13.292 : en:02:07:13.292

piratbit.pw



Скачать По соображениям совести через торрент http://s019.radikal.ru/i627/1710/a4/22de700c8996.jpg Скачать фильм По соображениям совести через торрент бесплантно в хорошем качестве Описание: В самый разгар Второй мировой войны молодой рабочий из американской провинции Десмонд Досс записывается добровольцем в армию. ... 7.8 10 4
Info! Золотая раздача, скачанное не засчитывается.
Торрент: Зарегистрирован [2017-10-13 17:10] · скачан: 107 раз
Статус: √ проверено
Размер: 70.03 GB
Как cкачать? Как скачать По соображениям совести через торрент | qTorrent

% Раздел Тема Автор DL S | L
Ultra HD (UHD: 2K, 4K, 8K) — видео сверхвысокой чёткости [ 79.26 GB ] По соображениям совести / Hacksaw Ridge [2016 военный история UHD BDRemux 2160p] + 3xAVO sheker187 Скачать
1 | 0
Фильмы с авторской озвучкой [ 2.17 GB ] По соображениям совести / Hacksaw Ridge [2016 военный биография BDRip-AVC от _denis_100 | NNNB] AVO + Sub _denis_100 Скачать
1 | 0
Фильмы (Blu-ray, BD-Remux, HDDVD) [ 40.74 GB ] По соображениям совести / Hacksaw Ridge [2016 военный история Blu-ray 1080p] bober100 Скачать
1 | 0
Фильмы с авторской озвучкой [ 2.18 GB ] По соображениям совести / Hacksaw Ridge [2016 военный биография история HDRip] [AVO] killermax2013 Скачать
2 | 0
Фильмы 2016 [DVDrip, WEB-DLRip, HDrip] (DUB, MVO) [ 2.12 GB ] По соображениям совести / Hacksaw Ridge [2016 военный история BDRip] - Twi7ter Скачать
2 | 0
Фильмы 2016 [DVDrip, WEB-DLRip, HDrip] (DUB, MVO) [ 1.46 GB ] По соображениям совести / Hacksaw Ridge [2016 военный история BDRip] - Twi7ter Скачать
4 | 0
R.G. Resident & PiratVoice - Фильмы, Видео [ 4.52 GB ] По соображениям совести / Hacksaw Ridge [2016 военный история BDRip 720p ] - schultz Скачать
2 | 0

28-11-2019 20:33  

Отключить всю рекламу на сайте

09-12-2017 18:30 По соображениям совести Скачать торрент  

классный фильмpiratbit.pw



24-02-2018 18:47 По соображениям совести Скачать торрент  

Дайте пожалуйста скоростиpiratbit.pw



    Дорогой пользователь! Огромная просьба, поблагодарите релизера, оцените раздачу и оставьте свои комментарий, если Вы скачали По соображениям совести через торрент бесплатно! Внесите свою лепту в развитие PiratBit!
    Комментировать посты могут только пользователи прошедшие не сложную регистрацию
    Показать сообщения:    

    По соображениям совести через торрент
    Скачать бесплатно По соображениям совести
    По соображениям совести скачать торрент
    По соображениям совести смотреть онлайн
    Cкачать фильм По соображениям совести бесплатно
    По соображениям совести скачать торрент в хорошем качестве
    По соображениям совести смотреть онлайн бесплатно в хорошем качестве


    Вы не можете начинать темы
    Вы не можете отвечать на сообщения
    Вы не можете редактировать свои сообщения
    Вы не можете удалять свои сообщения
    Вы не можете голосовать в опросах
    Вы не можете прикреплять файлы к сообщениям
    Вы можете скачивать файлы