Ссылка на приватное зеркало всего за 1$. Внимание количество ограничено!!!

iTunes

iTunes

iTunes

1

iTunes

iTunes

iTunes

iTunes

iTunes

30
pack

Новость дня

ВАЖНО

!!Акция!!

Alien_RageХит недели

RePack

Resident Evil 21

ИГРА 18+

pack

RePack

jed

!!Акция!!

Alien_Rage

RePack

fifa19

RePack

Assassins Creed: Odyssey

RePack

NEED FOR SPEED™ PAYBACK

4 сезон

9 сезон

Бесстыжие 9 сезон

Все сериалы

все сериалы на PB.wtf

RePack

FAR CRY 5
  

Люди Икс: Апокалипсис / X-Men: Apocalypse (Брайан Сингер) [2016, Фантастика, фэнтези, боевик, приключения, UHD BDRemux 2160p] [HDR10] 2xDUB+MVO+AVO piratbit.pw

Люди Икс: Апокалипсис через торрент piratbit.pw

Размер: 54.37 GB | Добавлен: 8 мес. назад | Торрент скачан:12 раз
Скачать  

09-10-2017 04:22 Люди Икс: Апокалипсис Скачать торрент  

Люди Икс: Апокалипсис / X-Men: Apocalypse
Год выпуска: 2016
Страна: США
Жанр: Фантастика, фэнтези, боевик, приключения
Продолжительность: 02:23:58
Перевод:

Перевод 1: Дублированный | Лицензия Blu-Ray EUR
Перевод 2: Дублированный | Custom
Перевод 3: Профессиональный (многоголосый закадровый) | FocusStudio
Перевод 4: Авторский (одноголосый закадровый) | Ю. Живов

Субтитры: русские (forced, full), английские (forced, full, SDH, Commentary)

Режиссер: Брайан Сингер

rating

В ролях:

Джеймс МакЭвой, Майкл Фассбендер, Дженнифер Лоуренс, Эван Питерс, Оливия Манн, Роуз Бирн, Оскар Айзек, Софи Тёрнер, Николас Холт, Тай Шеридан, Бен Харди

Описание:

После событий "Дней минувшего будущего" мировое сообщество начинает осознавать присутствие среди обычных людей мутантов со сверхчеловеческими способностями. Но спокойно разобраться с внезапно вскрывшимися подробностями не позволяет случайно разбуженный от многовекового сна древний мутант Эн Сабах Нур, несущий апокалипсис в раздираемый противоречиями мир уже сегодня. Людям Икс предстоит решающая битва с самым могущественным врагом из тех, с кем им приходилось сталкиваться ранее.

Качество: UHD BDRemux 2160p
Формат: MKV

Видео: MPEG-H HEVC Video / 34997 kbps / 3840x2160 / 23.976 fps / 16:9 / Main 10 @ Level 5.1 @ High / 4:2:0 / 10 bits / HDR10 / BT.2020 /
Аудио 1: Russian DTS / 5.1 / 48 kHz / 768 kbps / 24 bits |Dub, Blu-Ray|
Аудио 2: Russian DTS-HD Master Audio / 7.1 / 48 kHz / 5165 kbps / 24 bits (DTS Core: 5.1 / 48 kHz / 1509 kbps / 24 bits) |Dub, Custom|
Аудио 3: Russian DTS-HD Master Audio / 7.1 / 48 kHz / 5341 kbps / 24 bits (DTS Core: 5.1 / 48 kHz / 1509 kbps / 24 bits) |MVO, FocusStudio|
Аудио 4: Russian DTS / 5.1 / 48 kHz / 1509 kbps / 24 bits |Ю. Живов|
Аудио 5: English Dolby Atmos/TrueHD Audio / 7.1-Atmos / 48 kHz / 5992 kbps / 24-bit |original|
Аудио 6: English AC3 Core: 5.1 / 48 kHz / 640 kbps |original|
Аудио 7: English AC3 / 2.0 / 48 kHz / 224 kbps / 16 bits |Commentary by Bryan Singer and Simon Kinberg|
скриншот  скриншот  скриншот  

скриншот  скриншот  скриншот  

Общее
Уникальный идентификатор : 39350030534107903431493812960661323406 (0x1D9A8A4B525FB7E44580A89E4C6FBE8E)
Полное имя : H:\UHD\Люди Икс Апокалипсис.2016.UHD.BluRay.Remux.2160p.mkv
Формат : Matroska
Версия формата : Version 4
Размер файла : 54,4 Гбайт
Продолжительность : 2 ч. 23 м.
Режим общего битрейта : Переменный
Общий поток : 54,1 Мбит/сек
Дата кодирования : UTC 2019-07-17 17:32:43
Программа кодирования : mkvmerge v35.0.0 ('All The Love In The World') 64-bit
Библиотека кодирования : libebml v1.3.9 + libmatroska v1.5.2
Attachments : poster.jpg

Видео
Идентификатор : 1
Формат : HEVC
Формат/Информация : High Efficiency Video Coding
Профиль формата : Main 10@L5.1@High
HDR_Format/String : SMPTE ST 2086, HDR10 compatible
Идентификатор кодека : V_MPEGH/ISO/HEVC
Продолжительность : 2 ч. 23 м.
Битрейт : 35,0 Мбит/сек
Ширина : 3840 пикселей
Высота : 2160 пикселей
Соотношение сторон : 16:9
Режим частоты кадров : Постоянный
Частота кадров : 23,976 (24000/1001) кадра/сек
Цветовое пространство : YUV
Субдискретизация насыщенности : 4:2:0 (Type 2)
Битовая глубина : 10 бит
Бит/(Пиксели*Кадры) : 0.176
Размер потока : 35,2 Гбайт (65%)
Библиотека кодирования : ATEME Titan File 3.7.6 (4.7.6.101)
Default : Да
Forced : Нет
Цветовой диапазон : Limited
Основные цвета : BT.2020
Характеристики трансфера : PQ
Коэффициенты матрицы : BT.2020 non-constant
MasteringDisplay_ColorPrimaries : Display P3
MasteringDisplay_Luminance : min: 0.0000 cd/m2, max: 1000 cd/m2

Аудио #1
Идентификатор : 2
Формат : DTS
Формат/Информация : Digital Theater Systems
Идентификатор кодека : A_DTS
Продолжительность : 2 ч. 23 м.
Вид битрейта : Постоянный
Битрейт : 768 Кбит/сек
Каналы : 6 каналов
ChannelLayout : C L R Ls Rs LFE
Частота : 48,0 КГц
Частота кадров : 93,750 кадра/сек (512 SPF)
Битовая глубина : 24 бит
Метод сжатия : С потерями
Размер потока : 791 Мбайт (1%)
Заголовок : Dub, Blu-Ray
Язык : Russian
Default : Да
Forced : Нет

Аудио #2
Идентификатор : 3
Формат : DTS XLL
Формат/Информация : Digital Theater Systems
Коммерческое название : DTS-HD Master Audio
Идентификатор кодека : A_DTS
Продолжительность : 2 ч. 23 м.
Вид битрейта : Переменный
Битрейт : 5165 Кбит/сек
Каналы : 8 каналов
ChannelLayout : C L R LFE Lb Rb Lss Rss
Частота : 48,0 КГц
Частота кадров : 93,750 кадра/сек (512 SPF)
Битовая глубина : 24 бит
Метод сжатия : Без потерь
Размер потока : 5,19 Гбайт (10%)
Заголовок : Dub, Custom
Язык : Russian
Default : Нет
Forced : Нет

Аудио #3
Идентификатор : 4
Формат : DTS ES XLL
Формат/Информация : Digital Theater Systems
Коммерческое название : DTS-HD Master Audio
Идентификатор кодека : A_DTS
Продолжительность : 2 ч. 23 м.
Вид битрейта : Переменный
Битрейт : 5341 Кбит/сек
Каналы : 8 каналов
ChannelLayout : C L R Ls Rs LFE Lb Rb
Частота : 48,0 КГц
Частота кадров : 93,750 кадра/сек (512 SPF)
Битовая глубина : 24 бит
Метод сжатия : Без потерь
Размер потока : 5,37 Гбайт (10%)
Заголовок : MVO, FocusStudio
Язык : Russian
Default : Нет
Forced : Нет

Аудио #4
Идентификатор : 5
Формат : DTS
Формат/Информация : Digital Theater Systems
Идентификатор кодека : A_DTS
Продолжительность : 2 ч. 23 м.
Вид битрейта : Постоянный
Битрейт : 1509 Кбит/сек
Каналы : 6 каналов
ChannelLayout : C L R Ls Rs LFE
Частота : 48,0 КГц
Частота кадров : 93,750 кадра/сек (512 SPF)
Битовая глубина : 24 бит
Метод сжатия : С потерями
Размер потока : 1,52 Гбайт (3%)
Заголовок : Ю. Живов
Язык : Russian
Default : Нет
Forced : Нет

Аудио #5
Идентификатор : 6
Формат : MLP FBA 16-ch
Формат/Информация : Meridian Lossless Packing FBA with 16-channel presentation
Коммерческое название : Dolby TrueHD with Dolby Atmos
Идентификатор кодека : A_TRUEHD
Продолжительность : 2 ч. 23 м.
Вид битрейта : Переменный
Битрейт : 5352 Кбит/сек
Максимальный битрейт : 10,0 Мбит/сек
Каналы : 8 каналов
ChannelLayout : L R C LFE Ls Rs Lb Rb
Частота : 48,0 КГц
Частота кадров : 1200,000 кадров/сек (40 SPF)
Метод сжатия : Без потерь
Размер потока : 5,38 Гбайт (10%)
Язык : English
Default : Нет
Forced : Нет
NumberOfDynamicObjects : 13
BedChannelCount/String : 1 канал
BedChannelConfiguration : LFE

Аудио #6
Идентификатор : 7
Формат : AC-3
Формат/Информация : Audio Coding 3
Коммерческое название : Dolby Digital
Идентификатор кодека : A_AC3
Продолжительность : 2 ч. 23 м.
Вид битрейта : Постоянный
Битрейт : 640 Кбит/сек
Каналы : 6 каналов
ChannelLayout : L R C LFE Ls Rs
Частота : 48,0 КГц
Частота кадров : 31,250 кадров/сек (1536 SPF)
Битовая глубина : 16 бит
Метод сжатия : С потерями
Размер потока : 659 Мбайт (1%)
Язык : English
ServiceKind/String : Complete Main
Default : Нет
Forced : Нет

Аудио #7
Идентификатор : 8
Формат : AC-3
Формат/Информация : Audio Coding 3
Коммерческое название : Dolby Digital
Идентификатор кодека : A_AC3
Продолжительность : 2 ч. 23 м.
Вид битрейта : Постоянный
Битрейт : 224 Кбит/сек
Каналы : 2 канала
ChannelLayout : L R
Частота : 48,0 КГц
Частота кадров : 31,250 кадров/сек (1536 SPF)
Битовая глубина : 16 бит
Метод сжатия : С потерями
Размер потока : 231 Мбайт (0%)
Заголовок : Commentary by Bryan Singer and Simon Kinberg
Язык : English
ServiceKind/String : Complete Main
Default : Нет
Forced : Нет

Текст #1
Идентификатор : 9
Формат : UTF-8
Идентификатор кодека : S_TEXT/UTF8
Идентификатор кодека/Информация : UTF-8 Plain Text
Продолжительность : 1 ч. 26 м.
Битрейт : 4 бит/сек
ElementCount : 95
Размер потока : 3,12 Кбайт (0%)
Заголовок : forced
Язык : Russian
Default : Да
Forced : Нет

Текст #2
Идентификатор : 10
Формат : UTF-8
Идентификатор кодека : S_TEXT/UTF8
Идентификатор кодека/Информация : UTF-8 Plain Text
Продолжительность : 2 ч. 22 м.
Битрейт : 56 бит/сек
ElementCount : 1442
Размер потока : 59,1 Кбайт (0%)
Заголовок : full
Язык : Russian
Default : Нет
Forced : Нет

Текст #3
Идентификатор : 11
Формат : UTF-8
Идентификатор кодека : S_TEXT/UTF8
Идентификатор кодека/Информация : UTF-8 Plain Text
Продолжительность : 1 ч. 26 м.
Битрейт : 3 бит/сек
ElementCount : 97
Размер потока : 1,96 Кбайт (0%)
Заголовок : forced
Язык : English
Default : Нет
Forced : Нет

Текст #4
Идентификатор : 12
Формат : UTF-8
Идентификатор кодека : S_TEXT/UTF8
Идентификатор кодека/Информация : UTF-8 Plain Text
Продолжительность : 2 ч. 12 м.
Битрейт : 38 бит/сек
ElementCount : 1458
Размер потока : 37,6 Кбайт (0%)
Заголовок : full
Язык : English
Default : Нет
Forced : Нет

Текст #5
Идентификатор : 13
Формат : UTF-8
Идентификатор кодека : S_TEXT/UTF8
Идентификатор кодека/Информация : UTF-8 Plain Text
Продолжительность : 2 ч. 21 м.
Битрейт : 45 бит/сек
ElementCount : 1909
Размер потока : 47,2 Кбайт (0%)
Заголовок : SDH
Язык : English
Default : Нет
Forced : Нет

Текст #6
Идентификатор : 14
Формат : UTF-8
Идентификатор кодека : S_TEXT/UTF8
Идентификатор кодека/Информация : UTF-8 Plain Text
Продолжительность : 2 ч. 23 м.
Битрейт : 121 бит/сек
ElementCount : 2549
Размер потока : 128 Кбайт (0%)
Заголовок : Commentary by Bryan Singer and Simon Kinberg
Язык : English
Default : Нет
Forced : Нет

Меню
00:00:00.000 : :Chapter 01
00:08:18.789 : :Chapter 02
00:14:13.185 : :Chapter 03
00:18:07.086 : :Chapter 04
00:24:55.494 : :Chapter 05
00:30:45.343 : :Chapter 06
00:36:35.234 : :Chapter 07
00:41:00.082 : :Chapter 08
00:45:56.503 : :Chapter 09
00:49:24.294 : :Chapter 10
00:55:22.610 : :Chapter 11
00:59:36.823 : :Chapter 12
01:04:43.671 : :Chapter 13
01:12:35.851 : :Chapter 14
01:17:32.898 : :Chapter 15
01:22:18.516 : :Chapter 16
01:27:45.593 : :Chapter 17
01:34:05.806 : :Chapter 18
01:36:46.634 : :Chapter 19
01:39:50.901 : :Chapter 20
01:43:34.374 : :Chapter 21
01:49:57.382 : :Chapter 22
01:55:08.359 : :Chapter 23
01:57:21.659 : :Chapter 24
02:03:50.548 : :Chapter 25
02:07:56.710 : :Chapter 26
02:10:59.101 : :Chapter 27
02:12:54.091 : :Chapter 28

piratbit.pw



Скачать Люди Икс: Апокалипсис через торрент http://s018.radikal.ru/i520/1710/5d/d20d5d5826dc.jpg Скачать фильм Люди Икс: Апокалипсис через торрент бесплантно в хорошем качестве Описание: После событий "Дней минувшего будущего" мировое сообщество начинает осознавать присутствие среди обычных людей мутантов со ... 10 10 7
Торрент: Зарегистрирован [2019-07-19 20:29] · скачан: 12 раз
Статус: √ проверено
Размер: 54.37 GB
Как cкачать? Как скачать Люди Икс: Апокалипсис через торрент | qTorrent

28-11-2019 20:33  

Отключить всю рекламу на сайте

    Дорогой пользователь! Огромная просьба, поблагодарите релизера, оцените раздачу и оставьте свои комментарий, если Вы скачали Люди Икс: Апокалипсис через торрент бесплатно! Внесите свою лепту в развитие PiratBit!
    Комментировать посты могут только пользователи прошедшие не сложную регистрацию
    Показать сообщения:    

    Люди Икс: Апокалипсис через торрент
    Скачать бесплатно Люди Икс: Апокалипсис
    Люди Икс: Апокалипсис скачать торрент
    Люди Икс: Апокалипсис смотреть онлайн
    Cкачать фильм Люди Икс: Апокалипсис бесплатно
    Люди Икс: Апокалипсис скачать торрент в хорошем качестве
    Люди Икс: Апокалипсис смотреть онлайн бесплатно в хорошем качестве


    Вы не можете начинать темы
    Вы не можете отвечать на сообщения
    Вы не можете редактировать свои сообщения
    Вы не можете удалять свои сообщения
    Вы не можете голосовать в опросах
    Вы не можете прикреплять файлы к сообщениям
    Вы можете скачивать файлы