Ссылка на приватное зеркало нашего сайта всего за 1$. Внимание количество ограничено!!!

2 сезон

iTunes

iTunes

1

iTunes

iTunes

iTunes

WEBRip

iTunes

30
pack

Вам бонус

ВАЖНО

!!Акция!!

Alien_RageХит недели

RePack

Horizon Zero Dawn

ИГРА 18+

pack

RePack

jed

!!Акция!!

Alien_Rage

RePack

fifa19

RePack

Assassins Creed: Odyssey

RePack

NEED FOR SPEED™ PAYBACK

4 сезон

9 сезон

Бесстыжие 9 сезон

Все сериалы

все сериалы на PB.wtf

RePack

FAR CRY 5
  

Сампо (Александр Птушко) [1958, СССР, Финляндия, сказка, приключения, SATRip от AVP Studio] piratbit.pw

Сампо через торрент piratbit.pw

Размер: 744 MB | Добавлен: 2 года 11 мес. назад | Торрент скачан:20 раз
Скачать  

05-10-2017 09:09 Сампо Скачать торрент  

Сампо
Страна: СССР
Производство: Мосфильм, Суоми-фильми

Жанр: сказка, приключения
Год выпуска: 1958
Продолжительность: 01:34:46

Перевод: Не требуется
Cубтитры: нет
Оригинальная аудиодорожка: русский

Режиссер: Александр Птушко

В ролях:
Урхо Сомерсальми, Анна Орочко, Андрис Ошинь, Эве Киви, Иван Воронов, Ада Войцик, Георгий Милляр, Михаил Трояновский, Анникки Линноила...
Об актёрах подробней

Описание:
Фильм-сказка по мотивам карело-финского эпоса "Калевала".
Злая Лоухи с помощью волшебного плаща похитила Аннику, сестру кузнеца Ильмаринена. Чтобы спасти сестру, Ильмаринен делает для Лоухи волшебную мельницу Сампо. Теперь народ солнечной Калевалы обездолен. Возлюбленный Анники Лемминкяйнен задумал отобрать у коварной Лоухи Сампо, но это оказалось очень трудной задачей. Много страшных и трагических событий случилось, прежде чем осколок Сампо", добытый Лемминкяйненом, помог вернуть на землю Калевалы солнце, похищенное мерзкой Лоухи, и только тогда здесь воцарились счастье и любовь.

Источник: DVB
Качество видео: SATRip
Формат видео: AVI

Видео: 688x368 (1,85:1), 25 fps, XviD ~ 896 kbps avg, 0.142 bit/pixel
Аудио: 48 kHz, Dolby Digital AC3 2.0, 192 kbps

Раздача от:
Общее
Полное имя : Sampo.1958.SATRip_[New-team]_by_AVP_Studio.avi
Формат : AVI
Формат/Информация : Audio Video Interleave
Размер файла : 744 Мбайт
Продолжительность : 1 ч. 34 м.
Общий поток : 1098 Кбит/сек
Программа кодирования : VirtualDubMod 1.5.10.3 | www.virtualdub-fr.org || (build 2550/release)
Библиотека кодирования : VirtualDubMod build 2550/release

Видео
Идентификатор : 0
Формат : MPEG-4 Visual
Профиль формата : Advanced Simple@L5
Параметр BVOP формата : 1
Параметр QPel формата : Нет
Параметр GMC формата : Без точки перехода
Параметр матрицы формата : Выборочная
Идентификатор кодека : XVID
Идентификатор кодека/Подсказка : XviD
Продолжительность : 1 ч. 34 м.
Битрейт : 896 Кбит/сек
Ширина : 688 пикселей
Высота : 368 пикселей
Соотношение сторон : 1,85:1
Частота кадров : 25,000 кадров/сек
Цветовое пространство : YUV
Субдискретизация насыщенности : 4:2:0
Битовая глубина : 8 бит
Тип развёртки : Прогрессивная
Метод сжатия : С потерями
Бит/(Пиксели*Кадры) : 0.142
Размер потока : 608 Мбайт (82%)
Библиотека кодирования : XviD 73

Аудио
Идентификатор : 1
Формат : AC-3
Формат/Информация : Audio Coding 3
Параметр Endianness формата : Big
Идентификатор кодека : 2000
Продолжительность : 1 ч. 34 м.
Вид битрейта : Постоянный
Битрейт : 192 Кбит/сек
Каналы : 2 канала
Расположение каналов : Front: L R
Частота : 48,0 КГц
Частота кадров : 31,250 кадров/сек (1536 SPF)
Битовая глубина : 16 бит
Метод сжатия : С потерями
Размер потока : 130 Мбайт (17%)
Выравнивание : Разделение по промежуткам
Продолжительность промежутка : 40 мс. (1,00 видеокадр)
Время предзагрузки промежутка : 500 мс
piratbit.pw



Скачать Сампо через торрент http://s010.radikal.ru/i312/1710/ba/b0df57f7a7d4.png Скачать фильм Сампо через торрент бесплантно в хорошем качестве Описание:Фильм-сказка по мотивам карело-финского эпоса "Калевала".Злая Лоухи с помощью волшебного плаща похитила Аннику, сестру кузнеца ... 5 10 1
Info! Золотая раздача, скачанное не засчитывается.
Торрент: Зарегистрирован [2017-10-05 09:09] · скачан: 20 раз
Статус: √ проверено
Размер: 744 MB
Как cкачать? Как скачать Сампо через торрент | qTorrent

% Раздел Тема Автор DL S | L
Детские отечественные фильмы [ 745 MB ] Сампо [1958 СССР Финляндия сказка SATRip-AVC от AVP Studio] AVP Studio Скачать
1 | 0

28-11-2019 20:33  

Отключить всю рекламу на сайте

05-10-2017 09:19 Сампо Скачать торрент  

Топик был перенесен из форума Кино СССР в форум Детские отечественные фильмы


bober100piratbit.pw



    Дорогой пользователь! Огромная просьба, поблагодарите релизера, оцените раздачу и оставьте свои комментарий, если Вы скачали Сампо через торрент бесплатно! Внесите свою лепту в развитие PiratBit!
    Комментировать посты могут только пользователи прошедшие не сложную регистрацию
    Показать сообщения:    

    Сампо через торрент
    Скачать бесплатно Сампо
    Сампо скачать торрент
    Сампо смотреть онлайн
    Cкачать фильм Сампо бесплатно
    Сампо скачать торрент в хорошем качестве
    Сампо смотреть онлайн бесплатно в хорошем качестве


    Вы не можете начинать темы
    Вы не можете отвечать на сообщения
    Вы не можете редактировать свои сообщения
    Вы не можете удалять свои сообщения
    Вы не можете голосовать в опросах
    Вы не можете прикреплять файлы к сообщениям
    Вы можете скачивать файлы