Ссылка на приватное зеркало нашего сайта всего за 1$. Внимание количество ограничено!!!

2 сезон

iTunes

1 сезон

1

iTunes

iTunes

iTunes

1 сезон

RePack

30

ИГРА 18+

pack

ВАЖНО

!!Акция!!

Alien_RageХит недели

RePack

MK11
pack

Забери бонус

RePack

jed

!!Акция!!

Alien_Rage

RePack

fifa19

RePack

Assassins Creed: Odyssey

RePack

NEED FOR SPEED™ PAYBACK

4 сезон

9 сезон

Бесстыжие 9 сезон

Все сериалы

все сериалы на PB.wtf

RePack

FAR CRY 5
  

Да здравствует музыка / Il cambio della guardia (Джорджо Бьянки) [1962 г., Комедия, DVDRip, Профессиональный (многоголосый)] от ExKinoRay piratbit.pw

Да здравствует музыка через торрент piratbit.pw

Размер: 1.37 GB | Добавлен: 3 года назад | Торрент скачан:8 раз
Скачать  

30-09-2017 17:26 Да здравствует музыка Скачать торрент  

Да здравствует музыка / Il cambio della guardia
Год выпуска: 1962
Страна: Италия, Франция
Жанр: Комедия
Продолжительность: 01:28:24
Перевод: Профессиональный (многоголосый)

Режиссер: Джорджо Бьянки

Премьера в мире: 31 октября 1962

rating

В ролях: Фернандель, Джино Черви, Франко Паренти, Андреа Аурели, Франк Фернандель, Милла Саннонер, Дада Галлотти, Жерар Хертер, Амелия Перелла, Джузеппе Джанетто, Джузеппе Фортис, Пьеро Вивальди, Джимми иль Феномено, Силла Беттини, Густаво Де Нардо

Описание: Народная комедия, действие которой происходит в конце Второй мировой войны в итальянской деревне, где появляются союзные войска…

Доп. информация: Профессиональный многоголосый (ТРК Петербург - Пятый Канал)

Качество: DVDRip
Формат: AVI
Видео кодек: XviD
Аудио кодек: AC3
Видео: XviD, 1816 Кбит/с, 704x400, 25 кадров/сек
Аудио#1: Русский (AC3, 2 ch, 192 Кбит/с, 48 КГц)
Аудио#2: Французский (AC3, 2 ch, 192 Кбит/с, 48 КГц)
Релиз от:




Общее
Полное имя : D:\Relizes\IlCambioDellaGuardia.1962.DVDRip.ExKinoRay.avi
Формат : AVI
Формат/Информация : Audio Video Interleave
Размер файла : 1,37 Гбайт
Продолжительность : 1 ч. 28 м.
Общий поток : 2214 Кбит/сек
Программа кодирования : VirtualDubMod 1.5.10.3 (build 2550/release)
Библиотека кодирования : VirtualDubMod build 2550/release

Видео
Идентификатор : 0
Формат : MPEG-4 Visual
Профиль формата : Advanced Simple@L5
Параметр BVOP формата : 1
Параметр QPel формата : Нет
Параметр GMC формата : Без точки перехода
Параметр матрицы формата : Default (H.263)
Идентификатор кодека : XVID
Идентификатор кодека/Подсказка : XviD
Продолжительность : 1 ч. 28 м.
Битрейт : 1816 Кбит/сек
Ширина : 704 пикселя
Высота : 400 пикселей
Соотношение сторон : 16:9
Частота кадров : 25,000 кадров/сек
Цветовое пространство : YUV
Субдискретизация насыщенности : 4:2:0
Битовая глубина : 8 бит
Тип развёртки : Прогрессивная
Метод сжатия : С потерями
Бит/(Пиксели*Кадры) : 0.258
Размер потока : 1,12 Гбайт (82%)
Библиотека кодирования : XviD 1.2.1 (UTC 2008-12-04)

Аудио #1
Идентификатор : 1
Формат : AC-3
Формат/Информация : Audio Coding 3
Расширение режима : CM (complete main)
Параметр Endianness формата : Big
Идентификатор кодека : 2000
Продолжительность : 1 ч. 28 м.
Вид битрейта : Постоянный
Битрейт : 192 Кбит/сек
Каналы : 2 канала
Расположение каналов : Front: L R
Частота : 48,0 КГц
Частота кадров : 31,250 кадров/сек (1536 spf)
Метод сжатия : С потерями
Размер потока : 121 Мбайт (9%)
Выравнивание : Разделение по промежуткам
Продолжительность промежутка : 40 мс. (1,00 видеокадр)
Время предзагрузки промежутка : 500 мс.

Аудио #2
Идентификатор : 2
Формат : AC-3
Формат/Информация : Audio Coding 3
Расширение режима : CM (complete main)
Параметр Endianness формата : Big
Идентификатор кодека : 2000
Продолжительность : 1 ч. 28 м.
Вид битрейта : Постоянный
Битрейт : 192 Кбит/сек
Каналы : 2 канала
Расположение каналов : Front: L R
Частота : 48,0 КГц
Частота кадров : 31,250 кадров/сек (1536 spf)
Метод сжатия : С потерями
Размер потока : 121 Мбайт (9%)
Выравнивание : Разделение по промежуткам
Продолжительность промежутка : 40 мс. (1,00 видеокадр)
Время предзагрузки промежутка : 500 мс.

piratbit.pw



Скачать Да здравствует музыка через торрент http://s019.radikal.ru/i632/1709/ac/133ef4d46f8f.jpg Скачать фильм Да здравствует музыка через торрент бесплантно в хорошем качестве Описание: Народная комедия, действие которой происходит в конце Второй мировой войны в итальянской деревне, где появляются союзные ... 5 10 1
Info! Золотая раздача, скачанное не засчитывается.
Торрент: Зарегистрирован [2017-09-30 17:26] · скачан: 8 раз
Статус: √ проверено
Размер: 1.37 GB
Как cкачать? Как скачать Да здравствует музыка через торрент | qTorrent

28-11-2019 20:33  

Отключить всю рекламу на сайте

30-09-2017 17:42 Да здравствует музыка Скачать торрент  

Топик был перенесен из форума Оформление раздач (Кино, Видео и ТВ) в форум Классика зарубежного кино


bober100piratbit.pw



    Дорогой пользователь! Огромная просьба, поблагодарите релизера, оцените раздачу и оставьте свои комментарий, если Вы скачали Да здравствует музыка через торрент бесплатно! Внесите свою лепту в развитие PiratBit!
    Комментировать посты могут только пользователи прошедшие не сложную регистрацию
    Показать сообщения:    

    Да здравствует музыка через торрент
    Скачать бесплатно Да здравствует музыка
    Да здравствует музыка скачать торрент
    Да здравствует музыка смотреть онлайн
    Cкачать фильм Да здравствует музыка бесплатно
    Да здравствует музыка скачать торрент в хорошем качестве
    Да здравствует музыка смотреть онлайн бесплатно в хорошем качестве


    Вы не можете начинать темы
    Вы не можете отвечать на сообщения
    Вы не можете редактировать свои сообщения
    Вы не можете удалять свои сообщения
    Вы не можете голосовать в опросах
    Вы не можете прикреплять файлы к сообщениям
    Вы можете скачивать файлы