Ссылка на приватное зеркало нашего сайта всего за 1$. Внимание количество ограничено!!!

2 сезон

iTunes

1 сезон

1

2 сезон

2 сезон

iTunes

1 сезон

RePack

30

Новинка

ВАЖНО

ИГРА 18+

pack

RePack

MK11
pack

Забери бонус

RePack

jed

!!Акция!!

Alien_Rage

RePack

fifa19

RePack

Assassins Creed: Odyssey

RePack

NEED FOR SPEED™ PAYBACK

4 сезон

9 сезон

Бесстыжие 9 сезон

Все сериалы

все сериалы на PB.wtf

RePack

FAR CRY 5
  

Теория большого взрыва / The Big Bang Theory / Сезон: 11 / Серии: 1-24 из 24 (Марк Сендроуски, Питер Чакос) [2017, Ситком, комедия, HDTVRip] VO [Кураж-Бамбей] piratbit.pw

Теория большого взрыва через торрент piratbit.pw

Качают: 1 [ 0 KB/s ]
Размер: 5.87 GB | Добавлен: 2 года 6 мес. назад | Торрент скачан:683 раза
Скачать  

29-09-2017 19:40 Теория большого взрыва Скачать торрент  

Теория большого взрыва / The Big Bang TheoryГод выпуска: 2017
Страна: США
Жанр: Ситком, комедия
Продолжительность: ~ 00:21:00
Перевод: Профессиональный (одноголосый) | Кураж-Бамбей
Субтитры: отсутствуют

Режиссер: Марк Сендроуски, Питер Чакос, Энтони Джозеф Рич

rating

В ролях:

Джонни Галэки, Джим Парсонс, Кейли Куоко, Саймон Хелберг, Кунал Найяр, Майем Биалик, Мелисса Рауш, Кэрол Энн Сьюзи, Кевин Суссман, Арти Манн, Брайан Джордж, Элис Эмтер, Сара Гилберт, Джон Росс Боуи, Уил Уитон, Лори Меткаф, Верни Уотсон-Джонсон, Кристин Барански, Джошуа Малина, Кейси Сэндер, Кэти Леклерк

Описание:

Два блестящих физика, Леонард и Шелдон, считают себя «великими умами». Но их гениальность ничуть не помогает им общаться с людьми, особенно с женщинами. Всё начинает меняться, когда напротив них поселяется блондинка Пенни. Леонард начинает интересоваться ею, однако Шелдон понимает, что мечтам его друга не суждено сбыться («Вы с ней два разных биологических вида»). У главных героев есть странные друзья: Говард Воловиц, любящий употреблять фразы на шести разных языках, включая русский, и Раджеш Кутрапали, который не может ни слова сказать девушкам, если не выпьет хотя бы немного алкоголя.

Качество: HDTVRip
Формат: AVI
Видео кодек: XviD
Аудио кодек: AC-3

Видео: XviD, 720x400 (16:9), 23.976 fps, 1 464 Kbps (0.212 bit/pixel)
Аудио: AC-3, 48.0 KHz, 2 ch, 192 Kbps, CBR
скриншот   скриншот   скриншот   скриншот   скриншот  

Общее
Полное имя : D:\ TBBT (S11) \The.Big.Bang.Theory.S11E01.HDTVRip.KB.avi
Формат : AVI
Формат/Информация : Audio Video Interleave
Размер файла : 235 Мбайт
Продолжительность : 20 м. 49 с.
Общий поток : 1575 Кбит/сек
Программа кодирования : Lavf57.71.100

Видео
Идентификатор : 0
Формат : MPEG-4 Visual
Профиль формата : Advanced Simple@L4
Параметр BVOP формата : 2
Параметр QPel формата : Нет
Параметр GMC формата : Без точки перехода
Параметр матрицы формата : Default (H.263)
Режим смешивания : Сжатый битовый поток
Идентификатор кодека : XVID
Идентификатор кодека/Подсказка : XviD
Продолжительность : 20 м. 47 с.
Битрейт : 1375 Кбит/сек
Ширина : 720 пикселей
Высота : 400 пикселей
Соотношение сторон : 16:9
Частота кадров : 23,976 (24000/1001) кадра/сек
Цветовое пространство : YUV
Субдискретизация насыщенности : 4:2:0
Битовая глубина : 8 бит
Тип развёртки : Прогрессивная
Метод сжатия : С потерями
Бит/(Пиксели*Кадры) : 0.199
Размер потока : 204 Мбайт (87%)
Библиотека кодирования : XviD 67

Аудио
Идентификатор : 1
Формат : AC-3
Формат/Информация : Audio Coding 3
Расширение режима : CM (complete main)
Параметр Endianness формата : Big
Идентификатор кодека : 2000
Продолжительность : 20 м. 49 с.
Вид битрейта : Постоянный
Битрейт : 192 Кбит/сек
Каналы : 2 канала
Расположение каналов : Front: L R
Частота : 48,0 КГц
Частота кадров : 31,250 кадров/сек (1536 spf)
Битовая глубина : 16 бит
Метод сжатия : С потерями
Размер потока : 28,6 Мбайт (12%)
Выравнивание : Соединение по промежуткам
Продолжительность промежутка : 32 мс. (0,77 видеокадр)

Когда раздача ведётся путём добавления новых серий, при каждом добавлении создётся новый торрент. Чтобы начать докачку новой серии, пользователям необходимо сделать следующее:
(1) остановить скачивание,
(2) удалить старый торрент у себя из клиента (старые серии удалять не надо),
(3) скачать новый торрент и запустить его у себя в клиенте вместо старого, при этом указать клиенту путь в старую папку, куда и должно происходить скачивание новых серий.
Ваш клиент при этом должен произвести хеширование (проверку) старой папки (если не производит сам - помогите ему сделать это), и будет докачивать только те серии, которых у вас ещё нет. Старые серии при этом не удаляются, а продолжают раздаваться!
Eсли вы уже удалили старые серии, то предотвратить повторную закачку старых серий можно, отжав галочку в соответсвующих местах при запуске нового торрента. По возможности, желательно не удалять старые серии как можно дольше, чтобы релизёр не столько продолжал раздавать старые серии, а смог сконцентрироваться на новых.
piratbit.pw



Скачать Теория большого взрыва через торрент http://i89.fastpic.ru/big/2017/0930/88/fbd20e62f3392b0be36a39757369e888.jpg Скачать фильм Теория большого взрыва через торрент бесплантно в хорошем качестве Описание: Два блестящих физика, Леонард и Шелдон, считают себя «великими умами». Но их гениальность ничуть не помогает им общаться с ... 9.7 10 29
Info! Золотая раздача, скачанное не засчитывается.
Торрент: Зарегистрирован [2018-05-16 12:24] · скачан: 683 раз
Статус: √ проверено
Размер: 5.87 GB
Как cкачать? Как скачать Теория большого взрыва через торрент | qTorrent

% Раздел Тема Автор DL S | L
Теория большого взрыва [ 16.15 GB ] Теория большого взрыва / The Big Bang Theory / Сезон: 11 / Серии: 1-24 из 24 [2017 Ситком WEB-DL 720p] VO [Кураж-Бамбей] bober100 Скачать
2 | 0
Теория большого взрыва [ 21.25 GB ] Теория большого взрыва / The Big Bang Theory / Сезон: 11 / Серии: 1-24 из 24 [2017 Ситком WEB-DL 1080p] VO [Кураж-Бамбей] bober100 Скачать
1 | 0
Теория большого взрыва [ 16.24 GB ] Теория Большого Взрыва / The Big Bang Theory / Сезон: 5 Серии: 1-24 из 24 [2011 Ситком WEB-DL 720p] [Кураж-Бамбей rus+eng subs] wekotila Скачать
1 | 0
Теория большого взрыва [ 4.08 GB ] Теория Большого Взрыва / The Big Bang Theory / Сезон: 5 Серии 1-24 из 24 [2011 Ситком HDTVRip] Кураж-Бамбей wekotila Скачать
1 | 1


Последний раз редактировалось: bober100 (2018-05-16 12:24), всего редактировалось 21 раз(а)

28-11-2019 20:33  

Отключить всю рекламу на сайте

30-09-2017 06:40 Теория большого взрыва Скачать торрент  

огромное спасибоpiratbit.pw



16-05-2018 17:42 Теория большого взрыва Скачать торрент  

спасибо!piratbit.pw



    Дорогой пользователь! Огромная просьба, поблагодарите релизера, оцените раздачу и оставьте свои комментарий, если Вы скачали Теория большого взрыва через торрент бесплатно! Внесите свою лепту в развитие PiratBit!
    Комментировать посты могут только пользователи прошедшие не сложную регистрацию
    Показать сообщения:    

    Теория большого взрыва через торрент
    Скачать бесплатно Теория большого взрыва
    Теория большого взрыва скачать торрент
    Теория большого взрыва смотреть онлайн
    Cкачать фильм Теория большого взрыва бесплатно
    Теория большого взрыва скачать торрент в хорошем качестве
    Теория большого взрыва смотреть онлайн бесплатно в хорошем качестве


    Вы не можете начинать темы
    Вы не можете отвечать на сообщения
    Вы не можете редактировать свои сообщения
    Вы не можете удалять свои сообщения
    Вы не можете голосовать в опросах
    Вы не можете прикреплять файлы к сообщениям
    Вы можете скачивать файлы