Ссылка на приватное зеркало нашего сайта всего за 1$. Внимание количество ограничено!!!

2 сезон

iTunes

1 сезон

1

iTunes

iTunes

iTunes

1 сезон

RePack

30

ИГРА 18+

pack

ВАЖНО

!!Акция!!

Alien_RageХит недели

RePack

MK11
pack

Забери бонус

RePack

jed

!!Акция!!

Alien_Rage

RePack

fifa19

RePack

Assassins Creed: Odyssey

RePack

NEED FOR SPEED™ PAYBACK

4 сезон

9 сезон

Бесстыжие 9 сезон

Все сериалы

все сериалы на PB.wtf

RePack

FAR CRY 5
  

Шутки в сторону / Blague dans le coin (Морис Лабро) [1963 г., Комедия, DVDRip, Любительский (одноголосый)] от ExKinoRay piratbit.pw

Шутки в сторону через торрент piratbit.pw

Размер: 1.37 GB | Добавлен: 3 года 1 мес. назад | Торрент скачан:7 раз
Скачать  

29-09-2017 14:24 Шутки в сторону Скачать торрент  

Шутки в сторону / Blague dans le coin
Год выпуска: 1963
Страна: Франция
Жанр: Комедия
Продолжительность: 01:36:09
Перевод: Любительский (одноголосый)

Режиссер: Морис Лабро

Премьера в мире: 13 ноября 1963

rating

В ролях: Фернандель, Перретт Прадье, Элиана д’Альмейда, Жак Моно, Франсуа Мэтр, Роже Дютуа, Филипп Геган, Билли Кирнс, Ален Ноби, Эрик Синклер

Описание: Фантазёр и весельчак в одном лице, Джефф Берлингтон в одном из крупных городов, где проходят игры, приходит в казино и просит хозяина принять его на работу в качестве артиста-шуточника, который бы развлекал тамошнюю публику всякими анекдотами. Хозяин казино, мрачный и неприятный тип, Брадфорд, советует приготовить ему действительно комический номер и намекает в каком русле. Брадфорд в действительности грозный бандит, прозванный «Золотой рукой», хочет царить над всем городом, влавствовать и вытеснять из него своих конкурентов из двух гангстерских группировок, которые кроме всего прочего ещё и воюют друг с другом.

Качество: DVDRip
Формат: AVI
Видео кодек: XviD
Аудио кодек: AC3
Видео: XviD, 1636 Кбит/с, 704x432, 25 кадров/сек
Аудио#1: Русский (AC3, 2 ch, 192 Кбит/с, 48 КГц)
Аудио#2: Французский (AC3, 2 ch, 192 Кбит/с, 48 КГц)
Релиз от:




Общее
Полное имя : D:\Relizes\Shutki.V.Storonu.1963.DVDRip.ExKinoRay.avi
Формат : AVI
Формат/Информация : Audio Video Interleave
Размер файла : 1,37 Гбайт
Продолжительность : 1 ч. 36 м.
Общий поток : 2034 Кбит/сек
Программа кодирования : VirtualDubMod 1.5.10.3 (build 2550/release)
Библиотека кодирования : VirtualDubMod build 2550/release

Видео
Идентификатор : 0
Формат : MPEG-4 Visual
Профиль формата : Advanced Simple@L5
Параметр BVOP формата : 1
Параметр QPel формата : Нет
Параметр GMC формата : Без точки перехода
Параметр матрицы формата : Default (H.263)
Идентификатор кодека : XVID
Идентификатор кодека/Подсказка : XviD
Продолжительность : 1 ч. 36 м.
Битрейт : 1636 Кбит/сек
Ширина : 704 пикселя
Высота : 432 пикселя
Соотношение сторон : 16:10
Частота кадров : 25,000 кадров/сек
Цветовое пространство : YUV
Субдискретизация насыщенности : 4:2:0
Битовая глубина : 8 бит
Тип развёртки : Прогрессивная
Метод сжатия : С потерями
Бит/(Пиксели*Кадры) : 0.215
Размер потока : 1,10 Гбайт (80%)
Библиотека кодирования : XviD 1.2.1 (UTC 2008-12-04)

Аудио #1
Идентификатор : 1
Формат : AC-3
Формат/Информация : Audio Coding 3
Расширение режима : CM (complete main)
Параметр Endianness формата : Big
Идентификатор кодека : 2000
Продолжительность : 1 ч. 36 м.
Вид битрейта : Постоянный
Битрейт : 192 Кбит/сек
Каналы : 2 канала
Расположение каналов : Front: L R
Частота : 48,0 КГц
Частота кадров : 31,250 кадров/сек (1536 spf)
Метод сжатия : С потерями
Размер потока : 132 Мбайт (9%)
Выравнивание : Разделение по промежуткам
Продолжительность промежутка : 40 мс. (1,00 видеокадр)
Время предзагрузки промежутка : 500 мс.

Аудио #2
Идентификатор : 2
Формат : AC-3
Формат/Информация : Audio Coding 3
Расширение режима : CM (complete main)
Параметр Endianness формата : Big
Идентификатор кодека : 2000
Продолжительность : 1 ч. 36 м.
Вид битрейта : Постоянный
Битрейт : 192 Кбит/сек
Каналы : 2 канала
Расположение каналов : Front: L R
Частота : 48,0 КГц
Частота кадров : 31,250 кадров/сек (1536 spf)
Метод сжатия : С потерями
Размер потока : 132 Мбайт (9%)
Выравнивание : Разделение по промежуткам
Продолжительность промежутка : 40 мс. (1,00 видеокадр)
Время предзагрузки промежутка : 500 мс.

piratbit.pw



Скачать Шутки в сторону через торрент http://s019.radikal.ru/i605/1709/4e/a0a947ee3126.jpg Скачать фильм Шутки в сторону через торрент бесплантно в хорошем качестве Описание: Фантазёр и весельчак в одном лице, Джефф Берлингтон в одном из крупных городов, где проходят игры, приходит в казино и просит ... 10 10 1
Info! Золотая раздача, скачанное не засчитывается.
Торрент: Зарегистрирован [2017-09-29 14:24] · скачан: 7 раз
Статус: √ проверено
Размер: 1.37 GB
Как cкачать? Как скачать Шутки в сторону через торрент | qTorrent

28-11-2019 20:33  

Отключить всю рекламу на сайте

29-09-2017 14:49 Шутки в сторону Скачать торрент  

Топик был перенесен из форума Оформление раздач (Кино, Видео и ТВ) в форум Классика зарубежного кино


-Lexx-piratbit.pw



    Дорогой пользователь! Огромная просьба, поблагодарите релизера, оцените раздачу и оставьте свои комментарий, если Вы скачали Шутки в сторону через торрент бесплатно! Внесите свою лепту в развитие PiratBit!
    Комментировать посты могут только пользователи прошедшие не сложную регистрацию
    Показать сообщения:    

    Шутки в сторону через торрент
    Скачать бесплатно Шутки в сторону
    Шутки в сторону скачать торрент
    Шутки в сторону смотреть онлайн
    Cкачать фильм Шутки в сторону бесплатно
    Шутки в сторону скачать торрент в хорошем качестве
    Шутки в сторону смотреть онлайн бесплатно в хорошем качестве


    Вы не можете начинать темы
    Вы не можете отвечать на сообщения
    Вы не можете редактировать свои сообщения
    Вы не можете удалять свои сообщения
    Вы не можете голосовать в опросах
    Вы не можете прикреплять файлы к сообщениям
    Вы можете скачивать файлы