Ссылка на приватное зеркало нашего сайта всего за 1$. Внимание количество ограничено!!!

2 сезон

iTunes

iTunes

1

iTunes

iTunes

iTunes

WEBRip

iTunes

30
pack

Вам бонус

ВАЖНО

!!Акция!!

Alien_RageХит недели

RePack

Horizon Zero Dawn

ИГРА 18+

pack

RePack

jed

!!Акция!!

Alien_Rage

RePack

fifa19

RePack

Assassins Creed: Odyssey

RePack

NEED FOR SPEED™ PAYBACK

4 сезон

9 сезон

Бесстыжие 9 сезон

Все сериалы

все сериалы на PB.wtf

RePack

FAR CRY 5
  

Сквозь туман (Максим Счастнев) [2016, Военный, драма, WEB-DL 1080p] piratbit.pw

Сквозь туман через торрент piratbit.pw

Размер: 3.11 GB | Добавлен: 2 года 11 мес. назад | Торрент скачан:294 раза
Скачать  

29-09-2017 14:18 Сквозь туман Скачать торрент  

Сквозь туманГод выпуска: 2016
Страна: Россия
Жанр: Военный, драма
Продолжительность: 02:10:56
Перевод: Не требуется
Субтитры: Русские форсированные не отключаемые на немецкую речь
Реклама: Отсутствует

Режиссер: Максим Счастнев

rating

В ролях:

Алексей Карамазов, Максим Лебедев, Владимир Кондауров, Роман Жилкин, Юрий Васильев, Роберт Фишман, Екатерина Овчинникова

Описание:

Великая отечественная война, 1943 год. Группа немецких солдат возвращается после неудачной развед-вылазки, но, не добравшись до позиции своих, попадает под плотный советский огонь. Одному из них, Фридриху, удаётся спастись, нырнув в глубокую воронку, находящуюся на поле боя по середине враждующих сторон. После того, как канонада утихла, солдат собирался выбраться к своим, но тут возник случай, которого он не мог ожидать. В воронку скатывается советский солдат и Фридрих молниеносным ударом ножа наносит ему смертельный удар.

Ситуация во многом привычная для многих солдат так и оставалась бы простой солдатской смертью посреди хаоса войны, если бы не одно но — на улице уже достаточно посветлело и Фридриху не представляется возможным выбраться из этой бездонной ямы до тех пор, пока на улице снова не потемнеет. И теперь целый световой день немецкому солдату предстоит провести вместе с умирающим врагом. Как сильно может измениться представление человека о жизни и смерти глядя в глаза умирающему от твоих рук человеку?

Качество: WEB-DL 1080p
Формат: MKV
Видео кодек: H.264
Аудио кодек: AC3

Видео: 1920x1080 (16:9), 23.976 fps, x264 ~3138 kbps avg, 0.063 bit/pixel
Аудио: 48 kHz, AC3 Dolby Digital, 2 (L,R) ch, ~192.00 kbps avg | RUS
скриншот   скриншот   скриншот   скриншот   скриншот   скриншот  

Общее
Уникальный идентификатор : 215844481454599272922375349869374026261 (0xA26222906F8E0C6AB722D48E7DAF3215)
Полное имя : E:Skvoz.Tuman.2016.WEB-DL(1080p).OlLanDGroup.mkv
Формат : Matroska
Версия формата : Version 2
Размер файла : 3,11 Гбайт
Продолжительность : 2 ч. 10 м.
Общий поток : 3398 Кбит/сек
Дата кодирования : UTC 2017-09-29 12:22:17
Программа кодирования : mkvmerge v7.8.0 ('River Man') 32bit built on Apr 3 2015 12:11:22
Библиотека кодирования : libebml v1.3.1 + libmatroska v1.4.2

Видео
Идентификатор : 1
Формат : AVC
Формат/Информация : Advanced Video Codec
Профиль формата : High@L4
Параметр CABAC формата : Да
Параметр ReFrames формата : 2 кадра
Идентификатор кодека : V_MPEG4/ISO/AVC
Продолжительность : 2 ч. 10 м.
Битрейт : 3138 Кбит/сек
Ширина : 1920 пикселей
Высота : 1080 пикселей
Соотношение сторон : 16:9
Режим частоты кадров : Постоянный
Частота кадров : 23,976 (23976/1000) кадра/сек
Цветовое пространство : YUV
Субдискретизация насыщенности : 4:2:0
Битовая глубина : 8 бит
Тип развёртки : Прогрессивная
Бит/(Пиксели*Кадры) : 0.063
Размер потока : 2,87 Гбайт (92%)
Default : Да
Forced : Нет
Цветовой диапазон : Limited
Основные цвета : BT.709
Характеристики трансфера : BT.709
Коэффициенты матрицы : BT.709

Аудио
Идентификатор : 2
Формат : AC-3
Формат/Информация : Audio Coding 3
Расширение режима : CM (complete main)
Параметр Endianness формата : Big
Идентификатор кодека : A_AC3
Продолжительность : 2 ч. 10 м.
Вид битрейта : Постоянный
Битрейт : 192 Кбит/сек
Каналы : 2 канала
Расположение каналов : Front: L R
Частота : 48,0 КГц
Частота кадров : 31,250 кадров/сек (1536 spf)
Битовая глубина : 16 бит
Метод сжатия : С потерями
Размер потока : 180 Мбайт (6%)
Default : Да
Forced : Нет

piratbit.pw



Скачать Сквозь туман через торрент http://s014.radikal.ru/i329/1709/ae/b5dc5ff87048.jpg Скачать фильм Сквозь туман через торрент бесплантно в хорошем качестве Описание: Великая отечественная война, 1943 год. Группа немецких солдат возвращается после неудачной развед-вылазки, но, не добравшись до ... 10 10 12
Торрент: Зарегистрирован [2017-09-29 14:18] · скачан: 294 раз
Статус: √ проверено
Размер: 3.11 GB
Как cкачать? Как скачать Сквозь туман через торрент | qTorrent

% Раздел Тема Автор DL S | L
Наши новые фильмы 2016 [ 1.47 GB ] Сквозь туман [2016 Военный WEB-DLRip] bober100 Скачать
1 | 0

28-11-2019 20:33  

Отключить всю рекламу на сайте

04-11-2017 16:42 Сквозь туман Скачать торрент  

Игра актёров и операторская работа 100 баллов!!!piratbit.pw



    Дорогой пользователь! Огромная просьба, поблагодарите релизера, оцените раздачу и оставьте свои комментарий, если Вы скачали Сквозь туман через торрент бесплатно! Внесите свою лепту в развитие PiratBit!
    Комментировать посты могут только пользователи прошедшие не сложную регистрацию
    Показать сообщения:    

    Сквозь туман через торрент
    Скачать бесплатно Сквозь туман
    Сквозь туман скачать торрент
    Сквозь туман смотреть онлайн
    Cкачать фильм Сквозь туман бесплатно
    Сквозь туман скачать торрент в хорошем качестве
    Сквозь туман смотреть онлайн бесплатно в хорошем качестве


    Вы не можете начинать темы
    Вы не можете отвечать на сообщения
    Вы не можете редактировать свои сообщения
    Вы не можете удалять свои сообщения
    Вы не можете голосовать в опросах
    Вы не можете прикреплять файлы к сообщениям
    Вы можете скачивать файлы