Ссылка на приватное зеркало всего за 1$. Внимание количество ограничено!!!

iTunes

iTunes

iTunes

1

iTunes

iTunes

iTunes

iTunes

iTunes

30
pack

$ от Little Big

ВАЖНО

!!Акция!!

Alien_RageХит недели

RePack

Resident Evil 21

ИГРА 18+

pack

RePack

jed

!!Акция!!

Alien_Rage

RePack

fifa19

RePack

Assassins Creed: Odyssey

RePack

NEED FOR SPEED™ PAYBACK

4 сезон

9 сезон

Бесстыжие 9 сезон

Все сериалы

все сериалы на PB.wtf

RePack

FAR CRY 5
  

Дьявола за хвост / Le diable par la queue (Филипп де Брока) [1969 г., Комедия, Профессиональный (двухголосый)] от ExKinoRay piratbit.pw

Дьявола за хвост через торрент piratbit.pw

Размер: 2.08 GB | Добавлен: 2 года 9 мес. назад | Торрент скачан:13 раз
Скачать  

27-09-2017 14:15 Дьявола за хвост Скачать торрент  

Дьявола за хвост / Le diable par la queue
Год выпуска: 1969
Страна: Франция, Италия
Жанр: Комедия
Продолжительность: 01:30:25
Перевод: Профессиональный (двухголосый)

Режиссер: Филипп де Брока

Премьера в мире: 7 февраля 1969

rating

В ролях: Ив Монтан, Мадлен Рено, Мария Шелл, Жан Рошфор, Жан-Пьер Марьель, Клотильда Жоано, Клод Пьеплю, Таня Лопер, Марта Келлер, Ксавье Желен

Описание: У семьи аристократов нет средств на содержание своей гостиницы - фамильного замка XVII века. Всего один постоялец не приносит большого дохода. Чтобы хоть как-то поправить свое положение, хозяева просят местного автотехника портить автомобили, которые останавливаются на заправке. В замке сразу появляется множество жильцов, от обычных туристов до грабителей банков...

Видео: MPEG-4 AVC, 2900 Кбит/с, 656x572@932x572, 25 кадров/сек
Аудио#1: Русский (AC3, 2 ch, 192 Кбит/с, 48 КГц)
Аудио#2: Французский (AC3, 2 ch, 192 Кбит/с, 48 КГц)
Релиз от:




raw [info]: 656x572p 64:45 @ 25/1 fps (cfr)
x264 [info]: using SAR=64/45
x264 [info]: using cpu capabilities: MMX2 SSE2Fast LZCNT
x264 [info]: profile High, level 4.1
x264 [info]: frame I:883 Avg QP:17.32 size: 58553
x264 [info]: frame P:27672 Avg QP:19.59 size: 27776
x264 [info]: frame B:107081 Avg QP:21.32 size: 10708
x264 [info]: consecutive B-frames: 1.6% 2.5% 9.5% 7.3% 4.6% 71.7% 1.1% 0.2% 0.5% 0.0% 0.1% 0.8% 0.0% 0.0% 0.0% 0.0% 0.0%
-----
Общее
Уникальный идентификатор : 212419991092086628862353229762724911395 (0x9FCE9A275BECE65896700D0FFC885923)
Полное имя : D:\Relizes\Diable.3A.XBOCT.1969.DVDRip-AVC.ExKinoRay.mkv
Формат : Matroska
Версия формата : Version 2
Размер файла : 2,08 Гбайт
Продолжительность : 1 ч. 30 м.
Общий поток : 3286 Кбит/сек
Дата кодирования : UTC 2017-09-27 00:53:45
Программа кодирования : mkvmerge v7.8.0 ('River Man') 32bit built on Apr 3 2015 12:11:22
Библиотека кодирования : libebml v1.3.1 + libmatroska v1.4.2

Видео
Идентификатор : 1
Формат : AVC
Формат/Информация : Advanced Video Codec
Профиль формата : High@L4.1
Параметр CABAC формата : Да
Параметр ReFrames формата : 14 кадров
Идентификатор кодека : V_MPEG4/ISO/AVC
Продолжительность : 1 ч. 30 м.
Битрейт : 2900 Кбит/сек
Ширина : 656 пикселей
Высота : 572 пикселя
Соотношение сторон : 16:10
Соотношение сторон в оригинале : 16:10
Режим частоты кадров : Постоянный
Частота кадров : 25,000 кадров/сек
Цветовое пространство : YUV
Субдискретизация насыщенности : 4:2:0
Битовая глубина : 8 бит
Тип развёртки : Прогрессивная
Бит/(Пиксели*Кадры) : 0.309
Размер потока : 1,79 Гбайт (86%)
Библиотека кодирования : x264 core 148 r2638 7599210
Настройки программы : cabac=1 / ref=14 / deblock=1:-2:-2 / analyse=0x3:0x133 / me=umh / subme=10 / psy=1 / psy_rd=1.05:0.15 / mixed_ref=1 / me_range=32 / chroma_me=1 / trellis=2 / 8x8dct=1 / cqm=0 / deadzone=21,11 / fast_pskip=0 / chroma_qp_offset=-3 / threads=4 / lookahead_threads=1 / sliced_threads=0 / nr=0 / decimate=0 / interlaced=0 / bluray_compat=0 / constrained_intra=0 / bframes=16 / b_pyramid=2 / b_adapt=2 / b_bias=0 / direct=3 / weightb=1 / open_gop=0 / weightp=2 / keyint=250 / keyint_min=25 / scenecut=40 / intra_refresh=0 / rc=2pass / mbtree=0 / bitrate=2900 / ratetol=1.0 / qcomp=0.60 / qpmin=0 / qpmax=69 / qpstep=4 / cplxblur=20.0 / qblur=0.5 / ip_ratio=1.40 / pb_ratio=1.30 /

aq=1:1.00
Язык : English
Default : Да
Forced : Нет
Цветовой диапазон : Limited
Основные цвета : BT.601 NTSC
Характеристики трансфера : BT.601
Коэффициенты матрицы : BT.601

Аудио #1
Идентификатор : 2
Формат : AC-3
Формат/Информация : Audio Coding 3
Расширение режима : CM (complete main)
Параметр Endianness формата : Big
Идентификатор кодека : A_AC3
Продолжительность : 1 ч. 30 м.
Вид битрейта : Постоянный
Битрейт : 192 Кбит/сек
Каналы : 2 канала
Расположение каналов : Front: L R
Частота : 48,0 КГц
Частота кадров : 31,250 кадров/сек (1536 spf)
Метод сжатия : С потерями
Размер потока : 124 Мбайт (6%)
Язык : Russian
Default : Да
Forced : Нет

Аудио #2
Идентификатор : 3
Формат : AC-3
Формат/Информация : Audio Coding 3
Расширение режима : CM (complete main)
Параметр Endianness формата : Big
Идентификатор кодека : A_AC3
Продолжительность : 1 ч. 30 м.
Вид битрейта : Постоянный
Битрейт : 192 Кбит/сек
Каналы : 2 канала
Расположение каналов : Front: L R
Частота : 48,0 КГц
Частота кадров : 31,250 кадров/сек (1536 spf)
Метод сжатия : С потерями
Размер потока : 124 Мбайт (6%)
Язык : French
Default : Нет
Forced : Нет

piratbit.pw



Скачать Дьявола за хвост через торрент http://s56.radikal.ru/i154/1709/e1/01d0daa2f3de.jpg Скачать фильм Дьявола за хвост через торрент бесплантно в хорошем качестве Описание: У семьи аристократов нет средств на содержание своей гостиницы - фамильного замка XVII века. Всего один постоялец не приносит ... 10 10 2
Info! Золотая раздача, скачанное не засчитывается.
Торрент: Зарегистрирован [2017-09-27 14:15] · скачан: 13 раз
Статус: √ проверено
Размер: 2.08 GB
Как cкачать? Как скачать Дьявола за хвост через торрент | qTorrent

28-11-2019 20:33  

Отключить всю рекламу на сайте

27-09-2017 14:32 Дьявола за хвост Скачать торрент  

Топик был перенесен из форума Оформление раздач (Кино, Видео и ТВ) в форум Классика зарубежного кино


-Lexx-piratbit.pw



    Дорогой пользователь! Огромная просьба, поблагодарите релизера, оцените раздачу и оставьте свои комментарий, если Вы скачали Дьявола за хвост через торрент бесплатно! Внесите свою лепту в развитие PiratBit!
    Комментировать посты могут только пользователи прошедшие не сложную регистрацию
    Показать сообщения:    

    Дьявола за хвост через торрент
    Скачать бесплатно Дьявола за хвост
    Дьявола за хвост скачать торрент
    Дьявола за хвост смотреть онлайн
    Cкачать фильм Дьявола за хвост бесплатно
    Дьявола за хвост скачать торрент в хорошем качестве
    Дьявола за хвост смотреть онлайн бесплатно в хорошем качестве


    Вы не можете начинать темы
    Вы не можете отвечать на сообщения
    Вы не можете редактировать свои сообщения
    Вы не можете удалять свои сообщения
    Вы не можете голосовать в опросах
    Вы не можете прикреплять файлы к сообщениям
    Вы можете скачивать файлы