1 сезон

1 сезон

iTunes

1

КиноПоиск HD

Кинопоиск HD

iTunes

13

1 сезон

RePack

30

Ultimate

ВАЖНО

ИГРА 18+

pack

RePack

MK11
pack

Легкие деньги

RePack

jed

RePack

fifa19

RePack

RDR2

RePack

NEED FOR SPEED™ PAYBACK

4 сезон

9 сезон

Бесстыжие 9 сезон

Все сериалы

все сериалы на PB.wtf

RePack

FAR CRY 5
  
Magnet ссылка

Ярость 3 / Ярость 3: Президент убит / Rampage: President Down (Уве Болл) [2016, боевик, триллер, криминал, BDRip-AVC] [AVO] (Михаил Чадов) piratbit.pw

Ярость 3 через торрент piratbit.pw

Размер: 2.18 GB | Добавлен: 3 года 6 мес. назад | Торрент скачан:15 раз
Скачать  

26-09-2017 19:47 Ярость 3 Скачать торрент  

Ярость 3 / Ярость 3: Президент убит / Rampage: President Down
Год выхода: 2016
Жанр: боевик, триллер, криминал
Выпущено: Канада / Amok Productions, Momentum Pictures
Продолжительность: 01:39:45
Перевод: Авторский (одноголосый, закадровый) [Михаил Чадов]
Субтитры: Отсутствуют

Режиссер: Уве Болл

В ролях: Брендан Флетчер, Брюс Блэйн, Лоретта Уолш, Зайн Магхджи, Стив Бэран, Райан МакДонелл, Скотт Пате, Кристал Лоу, Энтони Роджерс, Дэн Шиу

О фильме: Продолжение кровавой истории идейного убийцы Билла Уильямсона. Вдохновившись новостными репортажами, неуловимый каратель начинает новую расправу над обществом, которое изжило себя и нуждается в адовой встряске.



Качество: BDRip-AVC
Формат: MKV
Видео: AVC, 1024x576 (16:9), 23.976 fps, 2674 Kbps (0.189 bit/pixel)
Аудио: AC-3, 48.0 KHz, 6 ch, 448 Kbps

Цитата:

Релиз доступен благодаря CHIPaev и dikii. Первую треть фильма перевёл Фёдор Погорелов, остальное перевёл Переводман

General
Unique ID : 174848625964687400135325898382435196151 (0x838A9ED5AEB557D5AF9D0EB634A89CF7)
Complete name : E:\INTERNET\Rampage.President.Down.2016.x264.BDRip.Chadov.mkv
Format : Matroska
Format version : Version 4 / Version 2
File size : 2.18 GiB
Duration : 1h 39mn
Overall bit rate : 3 123 Kbps
Encoded date : UTC 2017-09-26 14:02:15
Writing application : mkvmerge v6.0.0 ('Coming Up For Air') built on Jan 20 2013 09:52:00
Writing library : libebml v1.3.0 + libmatroska v1.4.0
Attachements : cover.jpg

Video
ID : 1
Format : AVC
Format/Info : Advanced Video Codec
Format profile : High@L4.1
Format settings, CABAC : Yes
Format settings, ReFrames : 11 frames
Codec ID : V_MPEG4/ISO/AVC
Duration : 1h 39mn
Bit rate : 2 674 Kbps
Width : 1 024 pixels
Height : 576 pixels
Display aspect ratio : 16:9
Frame rate mode : Constant
Frame rate : 23.976 fps
Color space : YUV
Chroma subsampling : 4:2:0
Bit depth : 8 bits
Scan type : Progressive
Bits/(Pixel*Frame) : 0.189
Stream size : 1.82 GiB (84%)
Writing library : x264 core 146 r2538 121396c
Encoding settings : cabac=1 / ref=11 / deblock=1:-3:-3 / analyse=0x3:0x133 / me=umh / subme=11 / psy=1 / psy_rd=1.00:0.00 / mixed_ref=1 / me_range=32 / chroma_me=1 / trellis=2 / 8x8dct=1 / cqm=0 / deadzone=21,11 / fast_pskip=0 / chroma_qp_offset=-2 / threads=12 / lookahead_threads=2 / sliced_threads=0 / nr=0 / decimate=0 / interlaced=0 / bluray_compat=0 / constrained_intra=0 / bframes=8 / b_pyramid=2 / b_adapt=2 / b_bias=0 / direct=3 / weightb=1 / open_gop=0 / weightp=2 / keyint=240 / keyint_min=23 / scenecut=40 / intra_refresh=0 / rc=2pass / mbtree=0 / bitrate=2674 / ratetol=1.0 / qcomp=0.60 / qpmin=0 / qpmax=69 / qpstep=4 / cplxblur=20.0 / qblur=0.5 / ip_ratio=1.40 / pb_ratio=1.30 / aq=1:1.00
Default : Yes
Forced : No

Audio
ID : 2
Format : AC-3
Format/Info : Audio Coding 3
Mode extension : CM (complete main)
Format settings, Endianness : Big
Codec ID : A_AC3
Duration : 1h 39mn
Bit rate mode : Constant
Bit rate : 448 Kbps
Channel(s) : 6 channels
Channel positions : Front: L C R, Side: L R, LFE
Sampling rate : 48.0 KHz
Compression mode : Lossy
Stream size : 320 MiB (14%)
Title : VO М.Чадов
Language : Russian
Default : Yes
Forced : No
скриншот  скриншот  скриншот  
piratbit.pw



Скачать Ярость 3 через торрент http://i89.fastpic.ru/big/2017/0926/49/cfc42f2e6ef42b39975152a4234f1649.jpg Скачать фильм Ярость 3 через торрент бесплантно в хорошем качестве О фильме: Продолжение кровавой истории идейного убийцы Билла Уильямсона. Вдохновившись новостными репортажами, неуловимый каратель начинает ... 5.3 10 3
Торрент: Зарегистрирован [2017-09-26 19:47] · скачан: 15 раз
Статус: √ проверено
Размер: 2.18 GB
Как cкачать? Как скачать Ярость 3 через торрент | UTorrent

% Раздел Тема Автор DL S | L
Фильмы (Blu-ray, BD-Remux, HDDVD) [ 14.6 GB ] Ярость 3 / Ярость 3: Президент убит / Rampage: President Down [2016 BD Remux Авторский Любительский ] PiratMan Скачать
1 | 0

28-11-2019 20:33  

Отключить всю рекламу на сайте

    Дорогой пользователь! Огромная просьба, поблагодарите релизера, оцените раздачу и оставьте свои комментарий, если Вы скачали Ярость 3 через торрент бесплатно! Внесите свою лепту в развитие PiratBit!
    Комментировать посты могут только пользователи прошедшие не сложную регистрацию
    Показать сообщения:    

    Ярость 3 через торрент
    Скачать бесплатно Ярость 3
    Ярость 3 скачать торрент
    Ярость 3 смотреть онлайн
    Cкачать фильм Ярость 3 бесплатно
    Ярость 3 скачать торрент в хорошем качестве
    Ярость 3 смотреть онлайн бесплатно в хорошем качестве


    Вы не можете начинать темы
    Вы не можете отвечать на сообщения
    Вы не можете редактировать свои сообщения
    Вы не можете удалять свои сообщения
    Вы не можете голосовать в опросах
    Вы не можете прикреплять файлы к сообщениям
    Вы можете скачивать файлы