Marvel's Avengers Deluxe Edition (супер цена) 159р. Внимание количество ограничено!!!

2 сезон

iTunes

iTunes

1

iTunes

iTunes

iTunes

WEBRip

iTunes

30
pack

Новость дня

ВАЖНО

!!Акция!!

Alien_RageХит недели

RePack

Horizon Zero Dawn

ИГРА 18+

pack

RePack

jed

!!Акция!!

Alien_Rage

RePack

fifa19

RePack

Assassins Creed: Odyssey

RePack

NEED FOR SPEED™ PAYBACK

4 сезон

9 сезон

Бесстыжие 9 сезон

Все сериалы

все сериалы на PB.wtf

RePack

FAR CRY 5
  

Кинотавр Shorts (Вадим Валиуллин, Алексей Наумов и др.) [2016, Короткометражки, WEB-DL 1080p] piratbit.pw

Кинотавр Shorts через торрент piratbit.pw

Размер: 2.37 GB | Добавлен: 2 года 11 мес. назад | Торрент скачан:149 раз
Скачать  

24-09-2017 07:11 Кинотавр Shorts Скачать торрент  

Кинотавр Shorts
Год выпуска: 2016
Страна: Россия
Жанр: Короткометражки
Продолжительность: 01:03:20
Перевод: Не требуется
Субтитры: отсутствуют

Режиссер: Вадим Валиуллин, Алексей Наумов и др.



В ролях:

Алевтина Даниленко, Валентина Мазунина, Виктор Добронравов, Денис Бондаренко, Дмитрий Рудков, Евгения Храповицкая, Ирина Горбачева, Ксения Кутепова, Мириам Сехон, Никита Тюнин, Олег Соколов, Павел Деревянко, Полина Смыковская, Родион Левинский, Серафима Огарёва, Сергей Бурунов, Сергей Легостаев

Описание:

Ирина Горбачева, Ксения Кутепова, Виктор Добронравов, Павел Деревянко и многие другие отечественные звезды в сборнике лучших короткометражных фильмов, показанных в конкурсе фестиваля «Кинотавр» в Сочи в 2016 году.Конкурс короткого метра – самого актуального и свежего, что есть в отечественном кинематографе сегодня – проходит на фестивале «Кинотавр» довольно давно. Именно короткометражками впервые заявляют о себе будущие важные имена русского кино: например, Иван. И. Твердовский («Зоология», «Класс коррекции), Жора Крыжовников («Горько!», «Самый лучший день») или Михаил Местецкий («Тряпичный союз»). Как правило, короткие метры горячо обсуждают на паре фестивалей и затем никогда не выпускают в прокат и часто даже не выкладывают в сеть. Впервые за всю историю «Кинотавра» лучшие короткометражки объединили в специальный сборник.Пять новелл – «Лунатики», «Кредит», «На дачу», «Следующий» и «Все в ящик» – сняты начинающими режиссерами на самые разные темы. Жизнь и смерть, любовь, политика, феминизм, социальные проблемы, фантастика – изящные этюды об этом и многом другом ищите в сборнике «Кинотавр. Shorts»

Качество: WEB-DL 1080p
Формат: MKV
Видео кодек: H.264
Аудио кодек: AC3

Видео: MPEG-4 AVC, 5120 Кбит/с, 1920x1080, 25,000 кадр/с
Аудио: Русский (AC3, 2 ch, 256 Кбит/с)
скриншот   скриншот   скриншот   скриншот   скриншот  

General
Unique ID : 194360623366727253921608387867545809805 (0x92387E949D45C103B8585196AC9DB38D)
Complete name : D:uTorrentKinotavr.Shorts.2016.WEB-DLRip.1080p.MediaClub.mkv
Format : Matroska
Format version : Version 4 / Version 2
File size : 2.37 GiB
Duration : 1 h 3 min
Overall bit rate : 5 357 kb/s
Encoded date : UTC 2017-09-22 17:14:53
Writing application : mkvmerge v15.0.0 ('Duel with the Devil') 64-bit
Writing library : libebml v1.3.5 + libmatroska v1.4.5

Video
ID : 1
Format : AVC
Format/Info : Advanced Video Codec
Format profile : High@L4
Format settings, CABAC : Yes
Format settings, ReFrames : 4 frames
Codec ID : V_MPEG4/ISO/AVC
Duration : 1 h 3 min
Bit rate : 5 120 kb/s
Width : 1 920 pixels
Height : 1 080 pixels
Display aspect ratio : 16:9
Frame rate mode : Constant
Frame rate : 25.000 FPS
Color space : YUV
Chroma subsampling : 4:2:0
Bit depth : 8 bits
Scan type : Progressive
Bits/(Pixel*Frame) : 0.099
Stream size : 2.26 GiB (95%)
Title : WEB-DLRip by Silverok
Writing library : x264 core 142
Encoding settings : cabac=1 / ref=3 / deblock=1:0:0 / analyse=0x3:0x113 / me=hex / subme=7 / psy=1 / psy_rd=1.00:0.00 / mixed_ref=1 / me_range=16 / chroma_me=1 / trellis=1 / 8x8dct=1 / cqm=0 / deadzone=21,11 / fast_pskip=1 / chroma_qp_offset=-2 / threads=36 / lookahead_threads=6 / sliced_threads=0 / nr=0 / decimate=1 / interlaced=0 / bluray_compat=0 / constrained_intra=0 / bframes=6 / b_pyramid=2 / b_adapt=1 / b_bias=0 / direct=1 / weightb=1 / open_gop=0 / weightp=2 / keyint=200 / keyint_min=20 / scenecut=0 / intra_refresh=0 / rc_lookahead=40 / rc=2pass / mbtree=1 / bitrate=5120 / ratetol=1.0 / qcomp=0.60 / qpmin=0 / qpmax=69 / qpstep=4 / cplxblur=20.0 / qblur=0.5 / vbv_maxrate=7680 / vbv_bufsize=20480 / nal_hrd=none / filler=0 / ip_ratio=1.40 / aq=1:1.00
Default : Yes
Forced : No

Audio
ID : 2
Format : AC-3
Format/Info : Audio Coding 3
Format settings, Endianness : Big
Codec ID : A_AC3
Duration : 1 h 3 min
Bit rate mode : Constant
Bit rate : 256 kb/s
Channel(s) : 2 channels
Channel positions : Front: L R
Sampling rate : 48.0 kHz
Frame rate : 31.250 FPS (1536 spf)
Bit depth : 16 bits
Compression mode : Lossy
Stream size : 116 MiB (5%)
Language : Russian
Service kind : Complete Main
Default : Yes
Forced : No

piratbit.pw



Скачать Кинотавр Shorts через торрент http://s018.radikal.ru/i515/1709/b5/2697ea0ea2d6.jpg Скачать фильм Кинотавр Shorts через торрент бесплантно в хорошем качестве Описание: Ирина Горбачева, Ксения Кутепова, Виктор Добронравов, Павел Деревянко и многие другие отечественные звезды в сборнике лучших ... 10 10 6
Торрент: Зарегистрирован [2017-09-24 07:11] · скачан: 149 раз
Статус: √ проверено
Размер: 2.37 GB
Как cкачать? Как скачать Кинотавр Shorts через торрент | qTorrent

28-11-2019 20:33  

Отключить всю рекламу на сайте

24-09-2017 20:51 Кинотавр Shorts Скачать торрент  

стоит качать??piratbit.pw



25-09-2017 20:54 Кинотавр Shorts Скачать торрент  

xotab-vs писал(а):

стоит качать??

Конечно. Это ,как минимум , интересно. Шорты делают только талантищи, и здорово, что у нас их ещё снимают.piratbit.pw



    Дорогой пользователь! Огромная просьба, поблагодарите релизера, оцените раздачу и оставьте свои комментарий, если Вы скачали Кинотавр Shorts через торрент бесплатно! Внесите свою лепту в развитие PiratBit!
    Комментировать посты могут только пользователи прошедшие не сложную регистрацию
    Показать сообщения:    

    Кинотавр Shorts через торрент
    Скачать бесплатно Кинотавр Shorts
    Кинотавр Shorts скачать торрент
    Кинотавр Shorts смотреть онлайн
    Cкачать фильм Кинотавр Shorts бесплатно
    Кинотавр Shorts скачать торрент в хорошем качестве
    Кинотавр Shorts смотреть онлайн бесплатно в хорошем качестве


    Вы не можете начинать темы
    Вы не можете отвечать на сообщения
    Вы не можете редактировать свои сообщения
    Вы не можете удалять свои сообщения
    Вы не можете голосовать в опросах
    Вы не можете прикреплять файлы к сообщениям
    Вы можете скачивать файлы