1 сезон

1 сезон

iTunes

1

КиноПоиск HD

Кинопоиск HD

iTunes

13

1 сезон

RePack

30

Ultimate

ВАЖНО

ИГРА 18+

pack

RePack

MK11
pack

Легкие деньги

RePack

jed

RePack

fifa19

RePack

RDR2

RePack

NEED FOR SPEED™ PAYBACK

4 сезон

9 сезон

Бесстыжие 9 сезон

Все сериалы

все сериалы на PB.wtf

RePack

FAR CRY 5
  
Magnet ссылка

Плохая партия / The Bad Batch (Ана Лили Амирпур) [2016 г., фантастика, мелодрама, HDRip-AVC] AVO (BadBajo) - ExKinoRay piratbit.pw

Плохая партия через торрент piratbit.pw

Размер: 1.97 GB | Добавлен: 3 года 7 мес. назад | Торрент скачан:78 раз
Скачать  

23-09-2017 15:08 Плохая партия Скачать торрент  

Информация о фильме
Название: Плохая партия
Оригинальное название: The Bad Batch
Год выпуска: 2016
Жанр: Фантастика, мелодрама
Выпущено: США, Human Stew Factory, Annapurna Pictures, Reel Chefs Catering, Viсе Films
Продолжительность: 01:58:39
Перевод: BadBajo
Озвучивание: Авторское одноголосое (BadBajo)
Субтитры: Русские, английские
Режиссер: Ана Лили Амирпур

В ролях: Киану Ривз, Джейсон Момоа, Джим Керри, Сьюки Уотерхаус, Джованни Рибизи, Диего Луна, Алина Алилуйкина, Эмили О’Брайэн, Йолонда Росс, Саншайн Ли

Описание:
Местом действия постапокалиптической картины станет техасский пустырь, где обосновалось сообщество каннибалов. Один из них, известный под прозвищем Человек из Майами, влюбляется в свою потенциальную пищу.


rating

Файл
Формат: MKV
Качество: HDRip-AVC
Видео: MPEG-4 AVC, 1024x428 (2.40:1), 1485 Kbit/s, 23.976 fps, 0,141 bpp
Звук:
Аудио 1: 48 kHz, AC3, 5.1 ch, 448 Kbps | RUS
Аудио 2: 48 kHz, AC3, 5.1 ch, 448 Kbps | ENG

Без какой-либо рекламы
General
Unique ID : 190252308987228678896685651181609229641 (0x8F21430B0243B5FBB25672F645651D49)
Complete name : D:\The.Bad.Batch.2016.AVO.HDRip.AVC.ExKinoRay.mkv
Format : Matroska
Format version : Version 2
File size : 1.97 GiB
Duration : 1 h 58 min
Overall bit rate : 2 381 kb/s
Movie name : The Bad Batch 2016 from ExKinoRay
Encoded date : UTC 2017-09-23 04:52:58
Writing application : mkvmerge v5.6.0 ('Kenya Kane') built on May 27 2012 16:44:04
Writing library : libebml v1.2.3 + libmatroska v1.3.0

Video
ID : 1
Format : AVC
Format/Info : Advanced Video Codec
Format profile : High@L4.1
Format settings, CABAC : Yes
Format settings, ReFrames : 12 frames
Codec ID : V_MPEG4/ISO/AVC
Duration : 1 h 58 min
Bit rate : 1 485 kb/s
Width : 1 024 pixels
Height : 428 pixels
Display aspect ratio : 2.40:1
Frame rate mode : Constant
Frame rate : 23.976 (23976/1000) FPS
Color space : YUV
Chroma subsampling : 4:2:0
Bit depth : 8 bits
Scan type : Progressive
Bits/(Pixel*Frame) : 0.141
Stream size : 1.19 GiB (60%)
Title : Enigma
Writing library : x264 core 144 r2525 40bb568
Encoding settings : cabac=1 / ref=12 / deblock=1:-2:-2 / analyse=0x3:0x113 / me=umh / subme=10 / psy=1 / psy_rd=1.00:0.05 / mixed_ref=1 / me_range=32 / chroma_me=1 / trellis=2 / 8x8dct=1 / cqm=0 / deadzone=21,11 / fast_pskip=1 / chroma_qp_offset=-3 / threads=12 / lookahead_threads=3 / sliced_threads=0 / nr=0 / decimate=0 / interlaced=0 / bluray_compat=0 / constrained_intra=0 / bframes=10 / b_pyramid=2 / b_adapt=2 / b_bias=0 / direct=3 / weightb=1 / open_gop=0 / weightp=2 / keyint=240 / keyint_min=23 / scenecut=40 / intra_refresh=0 / rc_lookahead=40 / rc=2pass / mbtree=0 / bitrate=1485 / ratetol=1.0 / qcomp=0.60 / qpmin=0 / qpmax=51 / qpstep=4 / cplxblur=20.0 / qblur=0.5 / vbv_maxrate=50000 / vbv_bufsize=62500 / nal_hrd=none / filler=0 / ip_ratio=1.40 / pb_ratio=1.30 / aq=1:1.00
Language : English
Default : Yes
Forced : No

Audio #1
ID : 2
Format : AC-3
Format/Info : Audio Coding 3
Mode extension : CM (complete main)
Format settings, Endianness : Big
Codec ID : A_AC3
Duration : 1 h 58 min
Bit rate mode : Constant
Bit rate : 448 kb/s
Channel(s) : 6 channels
Channel positions : Front: L C R, Side: L R, LFE
Sampling rate : 48.0 kHz
Frame rate : 31.250 FPS (1536 spf)
Compression mode : Lossy
Stream size : 380 MiB (19%)
Title : AVO (BadBajo)
Language : Russian
Default : Yes
Forced : No

Audio #2
ID : 3
Format : AC-3
Format/Info : Audio Coding 3
Mode extension : CM (complete main)
Format settings, Endianness : Big
Codec ID : A_AC3
Duration : 1 h 58 min
Bit rate mode : Constant
Bit rate : 448 kb/s
Channel(s) : 6 channels
Channel positions : Front: L C R, Side: L R, LFE
Sampling rate : 48.0 kHz
Frame rate : 31.250 FPS (1536 spf)
Compression mode : Lossy
Stream size : 380 MiB (19%)
Language : English
Default : No
Forced : No

Text #1
ID : 4
Format : UTF-8
Codec ID : S_TEXT/UTF8
Codec ID/Info : UTF-8 Plain Text
Language : Russian
Default : No
Forced : No

Text #2
ID : 5
Format : UTF-8
Codec ID : S_TEXT/UTF8
Codec ID/Info : UTF-8 Plain Text
Title : Full
Language : English
Default : No
Forced : No

Text #3
ID : 6
Format : UTF-8
Codec ID : S_TEXT/UTF8
Codec ID/Info : UTF-8 Plain Text
Title : SDH
Language : English
Default : No
Forced : No

Menu
00:00:00.000 : en:00:00:00.000
00:07:15.227 : en:00:07:15.227
00:18:09.381 : en:00:18:09.381
00:29:15.671 : en:00:29:15.671
00:38:49.620 : en:00:38:49.620
00:46:13.396 : en:00:46:13.396
00:59:59.388 : en:00:59:59.388
01:11:03.677 : en:01:11:03.677
01:21:51.908 : en:01:21:51.908
01:31:33.947 : en:01:31:33.947
01:40:35.780 : en:01:40:35.780
01:53:19.293 : en:01:53:19.293
Релиз от:

Автор релиза: piratbit.pw



Скачать Плохая партия через торрент http://s61.radikal.ru/i174/1706/6a/1223c0275ac8.jpg Скачать фильм Плохая партия через торрент бесплантно в хорошем качестве Описание: Местом действия постапокалиптической картины станет техасский пустырь, где обосновалось сообщество каннибалов. Один из них, ... 10 10 4
Info! Золотая раздача, скачанное не засчитывается.
Торрент: Зарегистрирован [2017-09-23 15:08] · скачан: 78 раз
Статус: √ проверено
Размер: 1.97 GB
Как cкачать? Как скачать Плохая партия через торрент | UTorrent

% Раздел Тема Автор DL S | L
Фильмы с авторской озвучкой [ 1.45 GB ] Плохая партия / The Bad Batch [2016 HDRip] AVO - ExKinoRay Enigma2010 Скачать
2 | 0

28-11-2019 20:33  

Отключить всю рекламу на сайте

23-09-2017 15:47 Плохая партия Скачать торрент  

Алина Алилуйкина piratbit.pw



    Дорогой пользователь! Огромная просьба, поблагодарите релизера, оцените раздачу и оставьте свои комментарий, если Вы скачали Плохая партия через торрент бесплатно! Внесите свою лепту в развитие PiratBit!
    Комментировать посты могут только пользователи прошедшие не сложную регистрацию
    Показать сообщения:    

    Плохая партия через торрент
    Скачать бесплатно Плохая партия
    Плохая партия скачать торрент
    Плохая партия смотреть онлайн
    Cкачать фильм Плохая партия бесплатно
    Плохая партия скачать торрент в хорошем качестве
    Плохая партия смотреть онлайн бесплатно в хорошем качестве


    Вы не можете начинать темы
    Вы не можете отвечать на сообщения
    Вы не можете редактировать свои сообщения
    Вы не можете удалять свои сообщения
    Вы не можете голосовать в опросах
    Вы не можете прикреплять файлы к сообщениям
    Вы можете скачивать файлы