Marvel's Avengers Deluxe Edition (супер цена) 159р. Внимание количество ограничено!!!

2 сезон

iTunes

iTunes

1

iTunes

iTunes

iTunes

WEBRip

iTunes

30
pack

Новость дня

ВАЖНО

!!Акция!!

Alien_RageХит недели

RePack

Horizon Zero Dawn

ИГРА 18+

pack

RePack

jed

!!Акция!!

Alien_Rage

RePack

fifa19

RePack

Assassins Creed: Odyssey

RePack

NEED FOR SPEED™ PAYBACK

4 сезон

9 сезон

Бесстыжие 9 сезон

Все сериалы

все сериалы на PB.wtf

RePack

FAR CRY 5
  

Бабушка легкого поведения (Марюс Вайсберг) [2017, комедия, WEB-DL 1080p] [iTunes] piratbit.pw

Бабушка легкого поведения через торрент piratbit.pw

Размер: 3.14 GB | Добавлен: 3 года назад | Торрент скачан:1816 раз
Скачать  

14-09-2017 20:09 Бабушка легкого поведения Скачать торрент  

Информация о фильме

Название: Бабушка легкого поведения

Год выхода: 2017

Жанр: комедия

Страна: Россия

Продолжительность: 01:21:23

Режиссер: Марюс Вайсберг

В ролях: Наталья Бардо, Филипп Киркоров, Владимир Толоконников, Александр Ревва, Глюкоза, Ольга Благая, Елена Валюшкина, Ёла Санько, Евгений Герчаков

О фильме:

Мастер перевоплощений Саня по прозвищу Трансформер провернул кучу афер, точь-в-точь изображая десятки персонажей. Но в этот раз он украл не у тех… Теперь у парня на хвосте очень плохие люди с пистолетами. Саня решает залечь на дно в доме престарелых в образе пожилой тети. И когда ему казалось, что он попал в безвыходную ситуацию, новый поворот судьбы дарит ему любовь и надежду превратиться в приличного человека.



Файл
Качество: WEB-DL 1080p

Формат: MKV

Видео: 1920x1080 at 25.000 fps, MPEG-4 AVC, ~5034 kbps avg

Aудио#1: Russian: 48 kHz, AC3, 3/2 (L,C,R,l,r) + LFE ch, ~384.00 kbps avg |iTunes|

Релиз от:
Общее
Уникальный идентификатор : 202930340758293519541087826616449569668 (0x98AAF644EB17DF40A369E407ED011384)
Полное имя : E:\Торенты\Babushka.legkogo.povedenija.2017.WEB-DL.1080p.mkv
Формат : Matroska
Версия формата : Version 4 / Version 2
Размер файла : 3,14 Гбайт
Продолжительность : 1 ч. 21 м.
Общий поток : 5528 Кбит/сек
Название фильма : BABUSHKA_LP_WEB_DL_1080p-BLUEBIRD
Дата кодирования : UTC 2017-09-14 18:19:58
Программа кодирования : mkvmerge v6.9.1 ('Blue Panther') 32bit built on Apr 18 2014 18:15:44
Библиотека кодирования : libebml v1.3.0 + libmatroska v1.4.1

Видео
Идентификатор : 1
Формат : AVC
Формат/Информация : Advanced Video Codec
Профиль формата : High@L4.0
Параметр CABAC формата : Да
Параметр ReFrames формата : 4 кадра
Идентификатор кодека : V_MPEG4/ISO/AVC
Продолжительность : 1 ч. 21 м.
Битрейт : 5034 Кбит/сек
Ширина : 1920 пикселей
Высота : 1080 пикселей
Соотношение сторон : 16:9
Режим частоты кадров : Постоянный
Частота кадров : 25,000 кадров/сек
Цветовое пространство : YUV
Субдискретизация насыщенности : 4:2:0
Битовая глубина : 8 бит
Тип развёртки : Прогрессивная
Бит/(Пиксели*Кадры) : 0.097
Размер потока : 2,86 Гбайт (91%)
Заголовок : BABUSHKA_LP_WEB_DL_1080p-BLUEBIRD
Язык : Russian
Default : Да
Forced : Нет
Основные цвета : BT.709
Характеристики трансфера : BT.709
Коэффициенты матрицы : BT.709
colour_range : Limited

Аудио
Идентификатор : 2
Формат : AC-3
Формат/Информация : Audio Coding 3
Расширение режима : CM (complete main)
Параметр Endianness формата : Big
Идентификатор кодека : A_AC3
Продолжительность : 1 ч. 21 м.
Вид битрейта : Постоянный
Битрейт : 384 Кбит/сек
Каналы : 6 каналов
Расположение каналов : Front: L C R, Side: L R, LFE
Частота : 48,0 КГц
Битовая глубина : 16 бит
Метод сжатия : С потерями
Размер потока : 224 Мбайт (7%)
Заголовок : [ORIGINAL] DD 5.1 @ 384 kbps (iTunes)
Язык : Russian
Default : Да
Forced : Нет

Меню
00:00:00.000 : en:Глава 1
00:06:11.840 : en:Глава 2
00:13:09.240 : en:Глава 3
00:20:45.360 : en:Глава 4
00:27:20.000 : en:Глава 5
00:34:28.520 : en:Глава 6
00:40:12.840 : en:Глава 7
00:44:56.280 : en:Глава 8
00:50:44.320 : en:Глава 9
00:56:21.280 : en:Глава 10
01:00:25.920 : en:Глава 11
01:03:53.480 : en:Глава 12
01:10:30.440 : en:Глава 13
01:17:02.280 : en:Глава 14
piratbit.pw



Скачать Бабушка легкого поведения через торрент http://img11.lostpic.net/2017/09/14/cc91e5279fa9a3123d28a9b3f1b6af4f.jpg Скачать фильм Бабушка легкого поведения через торрент бесплантно в хорошем качестве О фильме:Мастер перевоплощений Саня по прозвищу Трансформер провернул кучу афер, точь-в-точь изображая десятки персонажей. Но в этот раз он ... 10 10 36
Info! Золотая раздача, скачанное не засчитывается.
Торрент: Зарегистрирован [2017-09-14 20:09] · скачан: 1 816 раз
Статус: √ проверено
Размер: 3.14 GB
Как cкачать? Как скачать Бабушка легкого поведения через торрент | qTorrent

% Раздел Тема Автор DL S | L
Наши фильмы (HD, WEB-DL 720p, 1080p) [ 3.04 GB ] Бабушка легкого поведения 2. Престарелые Мстители [2019 WEB-DL 1080p] bober100 Скачать
3 | 0
Наши новые фильмы 2017 [ 1.29 GB ] Бабушка лёгкого поведения [2017 WEB-DLRip-AVC] R.G.Generalfilm White Smoke Скачать
1 | 0
Наши новые фильмы 2018-2019 [ 1.09 GB ] Бабушка легкого поведения 2.Престарелые Мстители [2019 WEB-DLRip] oleg8 Скачать
2 | 0
Наши фильмы (HD, WEB-DL 720p, 1080p) [ 2.5 GB ] Бабушка лёгкого поведения [2017 WEB-DL 720p] bober100 Скачать
1 | 0
Наши новые фильмы 2017 [ 1.37 GB ] Бабушка лёгкого поведения [2017 Россия WEB-DLRip-AVC] sokol_ok Скачать
2 | 0
Наши новые фильмы 2017 [ 1.46 GB ] Бабушка лёгкого поведения [2017 WEB-DLRip-AVC] bober100 Скачать
1 | 0
Наши новые фильмы 2017 [ 1.37 GB ] Бабушка лёгкого поведения [2017 WEB-DLRip] bober100 Скачать
1 | 0

28-11-2019 20:33  

Отключить всю рекламу на сайте

18-09-2017 23:59 Бабушка легкого поведения Скачать торрент  

ля 600 раз скачали и ноль коментов да вы совсем зажрались((piratbit.pw



    Дорогой пользователь! Огромная просьба, поблагодарите релизера, оцените раздачу и оставьте свои комментарий, если Вы скачали Бабушка легкого поведения через торрент бесплатно! Внесите свою лепту в развитие PiratBit!
    Комментировать посты могут только пользователи прошедшие не сложную регистрацию
    Показать сообщения:    

    Бабушка легкого поведения через торрент
    Скачать бесплатно Бабушка легкого поведения
    Бабушка легкого поведения скачать торрент
    Бабушка легкого поведения смотреть онлайн
    Cкачать фильм Бабушка легкого поведения бесплатно
    Бабушка легкого поведения скачать торрент в хорошем качестве
    Бабушка легкого поведения смотреть онлайн бесплатно в хорошем качестве


    Вы не можете начинать темы
    Вы не можете отвечать на сообщения
    Вы не можете редактировать свои сообщения
    Вы не можете удалять свои сообщения
    Вы не можете голосовать в опросах
    Вы не можете прикреплять файлы к сообщениям
    Вы можете скачивать файлы