1 сезон

1 сезон

iTunes

1

КиноПоиск HD

Кинопоиск HD

iTunes

13

1 сезон

RePack

30

Ultimate

ВАЖНО

ИГРА 18+

pack

RePack

MK11
pack

Легкие деньги

RePack

jed

RePack

fifa19

RePack

RDR2

RePack

NEED FOR SPEED™ PAYBACK

4 сезон

9 сезон

Бесстыжие 9 сезон

Все сериалы

все сериалы на PB.wtf

RePack

FAR CRY 5
  
Magnet ссылка

Вышибала: Эпический замес / Вышибала: Последний из Тафгаев / Goon: Last of the Enforcers (Джей Барушель) [2017, комедия, спорт, WEB-DL 1080р] [AVO] (М.Яроцкий (*Kuberpunk*)) piratbit.pw

Вышибала: Эпический замес через торрент piratbit.pw

Размер: 3.47 GB | Добавлен: 3 года 7 мес. назад | Торрент скачан:139 раз
Скачать  

11-09-2017 12:20 Вышибала: Эпический замес Скачать торрент  

Вышибала: Эпический замес / Вышибала: Последний из Тафгаев / Goon: Last of the Enforcers
Год выпуска: 2017
Страна: Канада
Производство: Caramel Film, No Trace Camping
Жанр: комедия, спорт
Продолжительность: 01:41:15
Перевод: Авторский (одноголосый) | Михаил Яроцкий (*Kuberpunk*)
Субтитры: нет

Режиссер: Джей Барушель
Авторы сценария: Джей Барушель, Джесси Шабо, Адам Фраттасио

В ролях: Шонн Уильям Скотт, Джей Барушель, ТиДжей Миллер, Элиша Катберт, Лив Шрайбер, Уайатт Расселл, Элисон Пилл, Ким Коутс

Описание: Даг — хоккеист, который совершенно не умеет играть в хоккей, но запросто может положить любого с помощью своих могучих кулаков. В результате травмы ударной правой руки ему приходится покинуть хоккей. Но как смириться со скучной офисной работой, когда капитаном твоей команды становится какой-то наглый мордоворот. Дагу придётся объединиться со своим злейшим врагом, чтобы вернуться на лёд и сделать своих соперников одной левой. Больше отжига, больше беспредела!



Качество: WEB-DL 1080р
Формат: МКV
Видео кодек: AVC
Аудио кодек: АС3
Видео: 1920x802 (2.40:1), 23.976 fps, MPEG-4 AVC ~4430 kbps avg
Аудио: 48.0 kHz, AC3 Dolby Digital, 3/2 (L,C,R,l,r) + LFE ch, ~384 kbps

Цитата:

Перевод доступен благодаря: Wa1ker, kidman644, napaHouk, СерП, Ananerbe, dikii, Alex_digg, Saviow, Анонимус, rikkibobbi, dikii. Работа со звуком Переводман

General
Unique ID : 226711769996660303203651202419679064668 (0xAA8F1941A9429730BB4F49F8B584725C)
Complete name : E:\INTERNET\Goon.Last.of.the.Enforcers.2017.1080p.Web-DL.Kyberpunk.mkv
Format : Matroska
Format version : Version 4 / Version 2
File size : 3.47 GiB
Duration : 1h 41mn
Overall bit rate : 4 912 Kbps
Encoded date : UTC 2017-09-10 15:10:45
Writing application : mkvmerge v6.0.0 ('Coming Up For Air') built on Jan 20 2013 09:52:00
Writing library : libebml v1.3.0 + libmatroska v1.4.0
Attachements : cover.jpg

Video
ID : 1
Format : AVC
Format/Info : Advanced Video Codec
Format profile : High@L4
Format settings, CABAC : Yes
Format settings, ReFrames : 5 frames
Codec ID : V_MPEG4/ISO/AVC
Duration : 1h 41mn
Bit rate : 4 430 Kbps
Width : 1 920 pixels
Height : 802 pixels
Display aspect ratio : 2.40:1
Frame rate mode : Constant
Frame rate : 23.976 fps
Color space : YUV
Chroma subsampling : 4:2:0
Bit depth : 8 bits
Scan type : Progressive
Bits/(Pixel*Frame) : 0.120
Stream size : 3.13 GiB (90%)
Title : x264
Language : English
Default : Yes
Forced : No
Color range : Limited
Color primaries : BT.709
Transfer characteristics : BT.709
Matrix coefficients : BT.709

Audio
ID : 2
Format : AC-3
Format/Info : Audio Coding 3
Mode extension : CM (complete main)
Format settings, Endianness : Big
Codec ID : A_AC3
Duration : 1h 41mn
Bit rate mode : Constant
Bit rate : 384 Kbps
Channel(s) : 6 channels
Channel positions : Front: L C R, Side: L R, LFE
Sampling rate : 48.0 KHz
Compression mode : Lossy
Stream size : 278 MiB (8%)
Title : AVO Kyberpunk
Language : Russian
Default : Yes
Forced : No
скриншот  скриншот  скриншот  
piratbit.pw



Скачать Вышибала: Эпический замес через торрент http://i91.fastpic.ru/big/2017/0911/3b/eb93dabe34ca00477fa2b52dc2270c3b.jpg Скачать фильм Вышибала: Эпический замес через торрент бесплантно в хорошем качестве Описание: Даг — хоккеист, который совершенно не умеет играть в хоккей, но запросто может положить любого с помощью своих могучих кулаков. В ... 10 10 4
Торрент: Зарегистрирован [2017-09-11 12:20] · скачан: 139 раз
Статус: √ проверено
Размер: 3.47 GB
Как cкачать? Как скачать Вышибала: Эпический замес через торрент | UTorrent

% Раздел Тема Автор DL S | L
Фильмы с авторской озвучкой [ 2.17 GB ] Вышибала: Эпический замес / Вышибала: Последний из Тафгаев / Goon: Last of the Enforcers [2017 BDRip-AVC] [AVO] Гоблин) - ExKinoRay Enigma2010 Скачать
2 | 0

28-11-2019 20:33  

Отключить всю рекламу на сайте

    Дорогой пользователь! Огромная просьба, поблагодарите релизера, оцените раздачу и оставьте свои комментарий, если Вы скачали Вышибала: Эпический замес через торрент бесплатно! Внесите свою лепту в развитие PiratBit!
    Комментировать посты могут только пользователи прошедшие не сложную регистрацию
    Показать сообщения:    

    Вышибала: Эпический замес через торрент
    Скачать бесплатно Вышибала: Эпический замес
    Вышибала: Эпический замес скачать торрент
    Вышибала: Эпический замес смотреть онлайн
    Cкачать фильм Вышибала: Эпический замес бесплатно
    Вышибала: Эпический замес скачать торрент в хорошем качестве
    Вышибала: Эпический замес смотреть онлайн бесплатно в хорошем качестве


    Вы не можете начинать темы
    Вы не можете отвечать на сообщения
    Вы не можете редактировать свои сообщения
    Вы не можете удалять свои сообщения
    Вы не можете голосовать в опросах
    Вы не можете прикреплять файлы к сообщениям
    Вы можете скачивать файлы