MEGA SALE -50% FORZA HORIZON 4 ULTIMATE+ВСЕ DLC+ОНЛАЙН всего за 599р. 299 руб. (супер цена). Внимание количество ограничено!!!

iTunes

1+1

iTunes

мы

iTunes

1

iTunes

Чернобыль

1 сезон

Ральф против интернета

Лицензия

ПШазам

Лицензия

Игра престолов

Лицензия

30
pack

ВАЖНО

!!Акция!!

Alien_RageХит недели

RePack

Resident Evil 21

ИГРА 18+

pack

RePack

Metro:Exodus

!!Акция!!

Alien_Rage

RePack

fifa19

RePack

Assassins Creed: Odyssey

RePack

NEED FOR SPEED™ PAYBACK

3 сезон

9 сезон

Бесстыжие 9 сезон

Все сериалы

все сериалы на PB.wtf

RePack

FAR CRY 5
Ребята, катастрофически не хватает 7730р. для оплаты серверов за ИЮЛЬ (всвязи с блокировками трафик упал в 3 раза), 1-2р., выручайте.
  

11:14 / ElevenFourte​en (Грег Мэркс / Greg Marcks) [2003 г., триллер, комедия, криминал, драма, BDRip] piratbit.pw

11:14 через торрент piratbit.pw

Размер: 2.18 GB | Добавлен: 8 лет 10 мес. назад | Торрент скачан:88 раз
Скачать  

21-10-2010 20:00 11:14 Скачать торрент  

11:14 / ElevenFourteen
Год выпуска: 2003
Страна: США
Жанр: триллер, комедия, криминал, драма
Продолжительность: 01:25:42
Перевод: Профессиональный (полное дублирование)
Субтитры: Русские, Английские

Режиссер: Грег Мэркс / Greg Marcks

В ролях: Рэйчел Ли Кук, Барбара Херши, Патрик Суэйзи, Хилари Суэнк, Генри Томас, Блейк Херон, Кларк Грегг, Шоун Хэтэси, Старк Сэндс, Колин Хэнкс, Бен Фостер

Описание: Миддлтон - очень миленькое провинциальное местечко. Одной очень странной ночью по шоссе на большой скорости движется автомобиль. За рулем изрядно подвыпивший парень говорит с кем-то по телефону. Громко орёт радио. На часах 11:13. Вдруг внезапно на лобовое стекло падают чьи-то части тела. Время - 11:14… Добро пожаловать в Миддлтон!



7.3/10






Качество: BDRip-AVC(исходник)
Формат: MPEG4
Видео кодек: H.264
Аудио кодек: AAC
Видео: 912x512 @ 23.976fps, 3132Kbps, 2pass
Аудио #1: Rus LC-AAC, 6ch, 48kHz, VBR q=0.33 (~254Kbps, max.311Kbps)
Аудио #2: Eng LC-AAC, 6ch, 48kHz, VBR q=0.33 (~245Kbps, max.300Kbps)
E:\kino\11-14 (Одиннадцать четырнадцать, ElevenFourteen) [512p, 2003].mp4
General
Complete name : E:\kino\11-14 (Одиннадцать четырнадцать, ElevenFourteen) [512p, 2003].mp4
Format : MPEG-4
Format profile : Base Media
Codec ID : isom
File size : 2.18 GiB
Duration : 1h 25mn
Overall bit rate : 3 635 Kbps
Movie name : 11:14 (Одиннадцать четырнадцать) / ElevenFourteen
Genre : Thriller
Encoded date : 2003
Tagged date : UTC 2009-12-02 10:35:30
Writing application : Yamb 2.1.0.0 [http://yamb.unite-video.com]
Cover : Yes
Comment : *** faber ***
Video #1
ID : 1
Format : AVC
Format/Info : Advanced Video Codec
Format profile : High@L4.0
Format settings, CABAC : Yes
Format settings, ReFrames : 14 frames
Codec ID : avc1
Codec ID/Info : Advanced Video Coding
Duration : 1h 25mn
Bit rate mode : Variable
Bit rate : 3 133 Kbps
Maximum bit rate : 10.9 Mbps
Width : 912 pixels
Height : 512 pixels
Display aspect ratio : 16:9
Frame rate mode : Constant
Frame rate : 23.976 fps
Resolution : 24 bits
Colorimetry : 4:2:0
Scan type : Progressive
Bits/(Pixel*Frame) : 0.280
Stream size : 1.87 GiB (86%)
Writing library : x264 core 79 r1352 d487de4
Encoding settings : cabac=1 / ref=14 / deblock=1:-2:-2 / analyse=0x3:0x113 / me=umh / subme=9 / psy=1 / psy_rd=1.0:0.3 / mixed_ref=1 / me_range=32 / chroma_me=1 / trellis=2 / 8x8dct=1 / cqm=0 / deadzone=21,11 / chroma_qp_offset=-4 / threads=3 / nr=0 / decimate=0 / mbaff=0 / constrained_intra=0 / bframes=11 / b_pyramid=0 / b_adapt=2 / b_bias=0 / direct=3 / wpredb=1 / wpredp=2 / keyint=250 / keyint_min=25 / scenecut=40 / rc_lookahead=70 / rc=2pass / mbtree=1 / bitrate=3133 / ratetol=1.0 / qcomp=0.75 / qpmin=10 / qpmax=51 / qpstep=4 / cplxblur=20.0 / qblur=0.5 / ip_ratio=1.40 / aq=1:0.80
Encoded date : UTC 2009-12-02 10:35:30
Tagged date : UTC 2009-12-02 10:39:27
matrix_coefficients : BT.709-5, BT.1361, IEC 61966-2-4 709, SMPTE RP177
Audio #2
ID : 2
Format : AAC
Format/Info : Advanced Audio Codec
Format version : Version 4
Format profile : LC
Format settings, SBR : No
Codec ID : 40
Duration : 1h 25mn
Bit rate mode : Variable
Bit rate : 254 Kbps
Maximum bit rate : 294 Kbps
Channel(s) : 6 channels
Channel positions : Front: L C R, Rear: L R, LFE
Sampling rate : 48.0 KHz
Resolution : 16 bits
Stream size : 155 MiB (7%)
Title : Russian [5.1]
Language : Russian
Encoded date : UTC 2009-12-02 10:38:57
Tagged date : UTC 2009-12-02 10:39:27
Audio #3
ID : 3
Format : AAC
Format/Info : Advanced Audio Codec
Format version : Version 4
Format profile : LC
Format settings, SBR : No
Codec ID : 40
Duration : 1h 25mn
Bit rate mode : Variable
Bit rate : 245 Kbps
Maximum bit rate : 292 Kbps
Channel(s) : 6 channels
Channel positions : Front: L C R, Rear: L R, LFE
Sampling rate : 48.0 KHz
Resolution : 16 bits
Stream size : 150 MiB (7%)
Title : English [5.1]
Language : English
Encoded date : UTC 2009-12-02 10:39:13
Tagged date : UTC 2009-12-02 10:39:27
Text #4
ID : 4
Format : Timed text
Codec ID : tx3g
Duration : 1h 20mn
Bit rate mode : Variable
Bit rate : 56 bps
Stream size : 33.2 KiB (0%)
Title : Russian
Language : Russian
Encoded date : UTC 2009-12-02 10:39:27
Tagged date : UTC 2009-12-02 10:39:27
Text #5
ID : 5
Format : Timed text
Codec ID : tx3g
Duration : 1h 20mn
Bit rate mode : Variable
Bit rate : 46 bps
Stream size : 27.1 KiB (0%)
Title : English
Language : English
Encoded date : UTC 2009-12-02 10:39:27
Tagged date : UTC 2009-12-02 10:39:27
piratbit.pw



Скачать 11:14 через торрент http://i5.fastpic.ru/big/2010/1018/f9/3c66478b7a305460a29ccd986d2adaf9.jpg Скачать фильм 11:14 через торрент бесплантно в хорошем качестве Описание: Миддлтон - очень миленькое провинциальное местечко. Одной очень странной ночью по шоссе на большой скорости движется автомобиль. ... 4.9 10 8
Info! Золотая раздача, скачанное не засчитывается.
Торрент: Зарегистрирован [2010-10-21 20:00] · скачан: 88 раз
Статус: √ проверено
Размер: 2.18 GB
Как cкачать? Как скачать 11:14 через торрент | qTorrent


>> Регистрируемся здесь <<






Отзывы и комментарии о схеме читаем и пишем здесь: ---> Отзывы и комментарии о схеме

Новые благодарочки в телеграм довольных пользователей:
скриншот   скриншот   скриншот   скриншот   скриншот

21-10-2010 20:03 11:14 Скачать торрент  

кино стоит посмотретьpiratbit.pw



22-10-2010 08:40 11:14 Скачать торрент  

Спасибо огромное, давно смотрел фильм по телевизору, забыл название piratbit.pw



22-10-2010 12:56 11:14 Скачать торрент  

Хороший фильм. Всем рекомендую.)piratbit.pw



    Дорогой пользователь! Огромная просьба, поблагодарите релизера, оцените раздачу и оставьте свои комментарий, если Вы скачали 11:14 через торрент бесплатно! Внесите свою лепту в развитие PiratBit!
    Комментировать посты могут только пользователи прошедшие не сложную регистрацию
    Показать сообщения:    

    11:14 через торрент
    Скачать бесплатно 11:14
    11:14 скачать торрент
    11:14 смотреть онлайн
    Cкачать фильм 11:14 бесплатно
    11:14 скачать торрент в хорошем качестве
    11:14 смотреть онлайн бесплатно в хорошем качестве


    Вы не можете начинать темы
    Вы не можете отвечать на сообщения
    Вы не можете редактировать свои сообщения
    Вы не можете удалять свои сообщения
    Вы не можете голосовать в опросах
    Вы не можете прикреплять файлы к сообщениям
    Вы можете скачивать файлы