1 сезон

1 сезон

iTunes

1

КиноПоиск HD

Кинопоиск HD

iTunes

13

1 сезон

RePack

30

Новинка

ВАЖНО

ИГРА 18+

pack

RePack

MK11
pack

Легкие деньги

RePack

jed

RePack

fifa19

RePack

RDR2

RePack

NEED FOR SPEED™ PAYBACK

4 сезон

9 сезон

Бесстыжие 9 сезон

Все сериалы

все сериалы на PB.wtf

RePack

FAR CRY 5
  
Magnet ссылка

Пугающая компания / Scare Campaign (Камерон Кернс, Колин Кернс) [2016, ужасы, BDRip 720p by msltel] AVO, VO piratbit.pw

Пугающая компания через торрент piratbit.pw

Размер: 3.05 GB | Добавлен: 3 года 7 мес. назад | Торрент скачан:30 раз
Скачать  

28-08-2017 06:33 Пугающая компания Скачать торрент  

Название: Пугающая компания
Оригинальное название: Scare Campaign
Год выпуска: 2016
Страна: Австралия
Жанр: ужасы
Продолжительность: 01:20:16
Перевод: авторский, любительский одноголосый

Режиссер: Камерон Кернс, Колин Кернс
В ролях: Миган Уорнер, Йен Медоуз, Оливия ДеДжонг, Джош Квон Тарт, Патрик Харви, Кассандра Маграт, Стив Музакис, Джон Брамптон, Джейсон Джиари, Сигрид Торнтон, Кейтин Яп

О фильме: Жили-были пранкеры (чуваки, устраивающие розыгрыши) и работали они при некоем телеканале устроителями пугающих сюжетов, транслирующихся в онлайне. Естественно, розыгрыш хорош лишь тогда, когда выполнен на грани нервных переживаний подопытного фигуранта. А посему несчастных не жалели. Всё делалось ради зрителя и рейтингов. Но, как известно, зритель быстро пресыщается доступным уровнем шоу, а технологии не стоят на месте. И в какой-то момент у команды пранкеров появляются сильные конкуренты - люди, транслирующие убийства в прямом эфире. Эти молодые и наглые убийцы бросают вызов старой команде безобидных любителей розыгрыша и в результате безжалостного столкновения зритель становится свидетелем массы жутких кровавых сцен и изощрённых сюжетов с расстановкой ловушек, использованием обманных приёмов, жёсткой игры всех против одного, внедрения своих людей к чужим и прочих хитросплетений...



Качество: BDRip 720p
Формат: MKV
Видео: MPEG-4 AVC, 4355 Кбит/с, 1280x536, 24 кадр/с
Аудио 1: русский, AC3, 448 kbps, 6 ch, 48 kHz [авторский, Антон Карповский]
Аудио 2: русский, AC3, 192 kbps, 2 ch, 48 kHz [любительский одноголосый, Хихидок]
Аудио 3: английский, AC3, 448 kbps, 6 ch, 48 kHz [оригинал]
Субтитры: английские
Имеются неименованные главы/чаптеры.
Общее
Уникальный идентификатор : 251435078198328092374697181225585960722 (0xBD28A2764503720C93FF23D344B76712)
Полное имя : D:\Video\Пугающая компания.2016.BDRip.720p by msltel.mkv
Формат : Matroska
Версия формата : Version 4 / Version 2
Размер файла : 3,05 Гбайт
Продолжительность : 1 ч. 20 м.
Общий поток : 5445 Кбит/сек
Название фильма : Rip by msltel
Дата кодирования : UTC 2017-08-28 04:31:57
Программа кодирования : mkvmerge v8.2.0 ('World of Adventure') 64bit
Библиотека кодирования : libebml v1.3.1 + libmatroska v1.4.2

Видео
Идентификатор : 1
Формат : AVC
Формат/Информация : Advanced Video Codec
Профиль формата : High@L4.1
Параметр CABAC формата : Да
Параметр RefFrames формата : 9 кадров
Идентификатор кодека : V_MPEG4/ISO/AVC
Продолжительность : 1 ч. 20 м.
Битрейт : 4355 Кбит/сек
Ширина : 1280 пикселей
Высота : 536 пикселей
Соотношение сторон : 2,40:1
Режим частоты кадров : Постоянный
Частота кадров : 24,000 кадра/сек
Цветовое пространство : YUV
Субдискретизация насыщенности : 4:2:0
Битовая глубина : 8 бит
Тип развёртки : Прогрессивная
Бит/(Пиксели*Кадры) : 0.264
Размер потока : 2,44 Гбайт (80%)
Библиотека кодирования : x264 core 146 r2538 121396c
Настройки программы : cabac=1 / ref=9 / deblock=1:-3:-2 / analyse=0x3:0x113 / me=umh / subme=11 / psy=1 / psy_rd=1.00:0.15 / mixed_ref=1 / me_range=32 / chroma_me=1 / trellis=2 / 8x8dct=1 / cqm=0 / deadzone=21,11 / fast_pskip=0 / chroma_qp_offset=-3 / threads=6 / lookahead_threads=1 / sliced_threads=0 / nr=0 / decimate=1 / interlaced=0 / bluray_compat=0 / constrained_intra=0 / bframes=6 / b_pyramid=2 / b_adapt=2 / b_bias=0 / direct=1 / weightb=1 / open_gop=0 / weightp=2 / keyint=230 / keyint_min=23 / scenecut=40 / intra_refresh=0 / rc_lookahead=40 / rc=crf / mbtree=0 / crf=18.0 / qcomp=0.60 / qpmin=0 / qpmax=69 / qpstep=4 / vbv_maxrate=62500 / vbv_bufsize=78125 / crf_max=0.0 / nal_hrd=none / filler=0 / ip_ratio=1.40 / pb_ratio=1.30 / aq=1:1.00
Язык : English
Default : Да
Forced : Нет

Аудио #1
Идентификатор : 2
Формат : AC-3
Формат/Информация : Audio Coding 3
Параметр Endianness формата : Big
Идентификатор кодека : A_AC3
Продолжительность : 1 ч. 20 м.
Вид битрейта : Постоянный
Битрейт : 448 Кбит/сек
Каналы : 6 каналов
Расположение каналов : Front: L C R, Side: L R, LFE
Частота : 48,0 КГц
Частота кадров : 31,250 кадров/сек (1536 SPF)
Битовая глубина : 16 бит
Метод сжатия : С потерями
Размер потока : 257 Мбайт (8%)
Заголовок : AVO (Антон Карповский)
Язык : Russian
ServiceKind/String : Complete Main
Default : Да
Forced : Нет

Аудио #2
Идентификатор : 3
Формат : AC-3
Формат/Информация : Audio Coding 3
Параметр Endianness формата : Big
Идентификатор кодека : A_AC3
Продолжительность : 1 ч. 20 м.
Вид битрейта : Постоянный
Битрейт : 192 Кбит/сек
Каналы : 2 канала
Расположение каналов : Front: L R
Частота : 48,0 КГц
Частота кадров : 31,250 кадров/сек (1536 SPF)
Битовая глубина : 16 бит
Метод сжатия : С потерями
Размер потока : 110 Мбайт (4%)
Заголовок : любительский одноголосый, Хихидок
Язык : Russian
ServiceKind/String : Complete Main
Default : Нет
Forced : Нет

Аудио #3
Идентификатор : 4
Формат : AC-3
Формат/Информация : Audio Coding 3
Параметр Endianness формата : Big
Идентификатор кодека : A_AC3
Продолжительность : 1 ч. 20 м.
Вид битрейта : Постоянный
Битрейт : 448 Кбит/сек
Каналы : 6 каналов
Расположение каналов : Front: L C R, Side: L R, LFE
Частота : 48,0 КГц
Частота кадров : 31,250 кадров/сек (1536 SPF)
Битовая глубина : 16 бит
Метод сжатия : С потерями
Размер потока : 257 Мбайт (8%)
Заголовок : original
Язык : English
ServiceKind/String : Complete Main
Default : Нет
Forced : Нет

Текст
Идентификатор : 5
Формат : UTF-8
Идентификатор кодека : S_TEXT/UTF8
Идентификатор кодека/Информация : UTF-8 Plain Text
Продолжительность : 1 ч. 13 м.
Битрейт : 57 бит/сек
ElementCount : 1089
Размер потока : 30,6 Кбайт (0%)
Заголовок : английские
Язык : English
Default : Нет
Forced : Нет

Меню
00:00:00.000 : en:00:00:00.000
00:05:44.208 : en:00:05:44.208
00:13:15.000 : en:00:13:15.000
00:21:12.000 : en:00:21:12.000
00:26:21.625 : en:00:26:21.625
00:33:27.833 : en:00:33:27.833
00:40:34.625 : en:00:40:34.625
00:46:35.625 : en:00:46:35.625
00:52:37.208 : en:00:52:37.208
00:59:58.625 : en:00:59:58.625
01:06:26.833 : en:01:06:26.833
01:12:19.208 : en:01:12:19.208
piratbit.pw



Скачать Пугающая компания через торрент http://s019.radikal.ru/i614/1708/42/0ea159b3b62c.jpg Скачать фильм Пугающая компания через торрент бесплантно в хорошем качестве О фильме: Жили-были пранкеры (чуваки, устраивающие розыгрыши) и работали они при некоем телеканале устроителями пугающих сюжетов, ... 10 10 2
Info! Золотая раздача, скачанное не засчитывается.
Торрент: Зарегистрирован [2017-08-28 06:33] · скачан: 30 раз
Статус: √ проверено
Размер: 3.05 GB
Как cкачать? Как скачать Пугающая компания через торрент | UTorrent

% Раздел Тема Автор DL S | L
Фильмы с авторской озвучкой [ 8.29 GB ] Пугающая компания / Scare Campaign [2016 BDRip 1080p by msltel] AVO VO msltel Скачать
1 | 0

28-11-2019 20:33  

Отключить всю рекламу на сайте

28-08-2017 07:56 Пугающая компания Скачать торрент  

Топик был перенесен из форума Фильмы [HD 720p, 1080p] (Хороший звук DUB, MVO) в форум Фильмы с авторской озвучкой


-Lexx-piratbit.pw



28-08-2017 19:36 Пугающая компания Скачать торрент  

Фильм забавный, смотрел с интересом.piratbit.pw



    Дорогой пользователь! Огромная просьба, поблагодарите релизера, оцените раздачу и оставьте свои комментарий, если Вы скачали Пугающая компания через торрент бесплатно! Внесите свою лепту в развитие PiratBit!
    Комментировать посты могут только пользователи прошедшие не сложную регистрацию
    Показать сообщения:    

    Пугающая компания через торрент
    Скачать бесплатно Пугающая компания
    Пугающая компания скачать торрент
    Пугающая компания смотреть онлайн
    Cкачать фильм Пугающая компания бесплатно
    Пугающая компания скачать торрент в хорошем качестве
    Пугающая компания смотреть онлайн бесплатно в хорошем качестве


    Вы не можете начинать темы
    Вы не можете отвечать на сообщения
    Вы не можете редактировать свои сообщения
    Вы не можете удалять свои сообщения
    Вы не можете голосовать в опросах
    Вы не можете прикреплять файлы к сообщениям
    Вы можете скачивать файлы