1 сезон

1 сезон

iTunes

1

КиноПоиск HD

Кинопоиск HD

iTunes

13

1 сезон

RePack

30

Новинка

ВАЖНО

ИГРА 18+

pack

RePack

MK11
pack

Легкие деньги

RePack

jed

RePack

fifa19

RePack

RDR2

RePack

NEED FOR SPEED™ PAYBACK

4 сезон

9 сезон

Бесстыжие 9 сезон

Все сериалы

все сериалы на PB.wtf

RePack

FAR CRY 5
  
Magnet ссылка

Первое убийство / First Kill (Стивен С. Миллер) [2017, Боевик, триллер, HDRip-AVC] AVO [BadBajo] - ExKinoRay piratbit.pw

Первое убийство через торрент piratbit.pw

Размер: 1.95 GB | Добавлен: 3 года 7 мес. назад | Торрент скачан:115 раз
Скачать  

27-08-2017 18:42 Первое убийство Скачать торрент  

Информация о фильме
Название: Первое убийство
Оригинальное название: First Kill
Год выпуска: 2017
Жанр: Боевик, триллер
Выпущено: США, Aboretum Productions, Brookstreet Pictures, Emmett/Furla/Oasis Films (EFO Films)
Продолжительность: 01:41:42
Перевод: BadBajo
Озвучивание: Авторское одноголосое (BadBajo)
Субтитры: Английские
Режиссер: Стивен С. Миллер
В ролях: Брюс Уиллис, Хейден Кристенсен, Гетин Энтони, Маги Авила, Шарлотта Кирк, Уильям ДеМео, Тамара Белоус, Хезер, охансен, Тайлер Джон Олсон

Описание:
Фильм об опытном офицере, который расследует похищение мальчика, ставшего свидетелем разборки между банковскими грабителями. Молодой отец также пытается вызволить своего сына, за которым пристально наблюдают полицейские, полагая, что он причастен к тем событиям и подозревают его в соучастии в ограблении.


rating

Файл
Формат: MKV
Качество: HDRip (AVC)
Видео: MPEG-4 AVC, 1024x426 (2.40:1), ~ 1912 kbps avg, 23.976 FPS, 0.183 bit/pixel
Аудио 1: AC-3, 48.0 KHz, 5.1 ch, 384 Kbps, CBR (Russian)
Аудио 2: AC-3, 48.0 KHz, 5.1 ch, 448 Kbps, CBR (ENG)

Без какой-либо рекламы
General
Unique ID : 244009052006647512126401136618234380772 (0xB7926F1A5E8E469CA6B1A7F8FE7B01E4)
Complete name : D:\First.Kill.2017.AVO.BadBajo.HDRip.AVC.ExKinoRay.mkv
Format : Matroska
Format version : Version 2
File size : 1.95 GiB
Duration : 1 h 41 min
Overall bit rate : 2 744 kb/s
Movie name : First Kill (2017) from ExKinoRay
Encoded date : UTC 2017-08-27 18:18:52
Writing application : mkvmerge v5.6.0 ('Kenya Kane') built on May 27 2012 16:44:04
Writing library : libebml v1.2.3 + libmatroska v1.3.0

Video
ID : 1
Format : AVC
Format/Info : Advanced Video Codec
Format profile : High@L4.1
Format settings, CABAC : Yes
Format settings, ReFrames : 13 frames
Codec ID : V_MPEG4/ISO/AVC
Duration : 1 h 41 min
Bit rate : 1 912 kb/s
Width : 1 024 pixels
Height : 426 pixels
Display aspect ratio : 2.40:1
Frame rate mode : Constant
Frame rate : 23.976 (23976/1000) FPS
Color space : YUV
Chroma subsampling : 4:2:0
Bit depth : 8 bits
Scan type : Progressive
Bits/(Pixel*Frame) : 0.183
Stream size : 1.32 GiB (68%)
Title : Enigma
Writing library : x264 core 144 r2525 40bb568
Encoding settings : cabac=1 / ref=13 / deblock=1:-3:-3 / analyse=0x3:0x113 / me=umh / subme=11 / psy=1 / psy_rd=1.00:0.05 / mixed_ref=1 / me_range=32 / chroma_me=1 / trellis=2 / 8x8dct=1 / cqm=0 / deadzone=21,11 / fast_pskip=1 / chroma_qp_offset=-3 / threads=12 / lookahead_threads=3 / sliced_threads=0 / nr=0 / decimate=0 / interlaced=0 / bluray_compat=0 / constrained_intra=0 / bframes=12 / b_pyramid=2 / b_adapt=2 / b_bias=0 / direct=3 / weightb=1 / open_gop=0 / weightp=2 / keyint=240 / keyint_min=23 / scenecut=40 / intra_refresh=0 / rc_lookahead=40 / rc=2pass / mbtree=0 / bitrate=1912 / ratetol=1.0 / qcomp=0.63 / qpmin=0 / qpmax=51 / qpstep=4 / cplxblur=20.0 / qblur=0.5 / vbv_maxrate=50000 / vbv_bufsize=62500 / nal_hrd=none / filler=0 / ip_ratio=1.40 / pb_ratio=1.30 / aq=1:0.80
Language : English
Default : Yes
Forced : No

Audio #1
ID : 2
Format : AC-3
Format/Info : Audio Coding 3
Mode extension : CM (complete main)
Format settings, Endianness : Big
Codec ID : A_AC3
Duration : 1 h 41 min
Bit rate mode : Constant
Bit rate : 384 kb/s
Channel(s) : 6 channels
Channel positions : Front: L C R, Side: L R, LFE
Sampling rate : 48.0 kHz
Frame rate : 31.250 FPS (1536 spf)
Compression mode : Lossy
Stream size : 279 MiB (14%)
Title : AVO (BadBajo)
Language : Russian
Default : Yes
Forced : No

Audio #2
ID : 3
Format : AC-3
Format/Info : Audio Coding 3
Mode extension : CM (complete main)
Format settings, Endianness : Big
Codec ID : A_AC3
Duration : 1 h 41 min
Bit rate mode : Constant
Bit rate : 448 kb/s
Channel(s) : 6 channels
Channel positions : Front: L C R, Side: L R, LFE
Sampling rate : 48.0 kHz
Frame rate : 31.250 FPS (1536 spf)
Compression mode : Lossy
Stream size : 326 MiB (16%)
Language : English
Default : No
Forced : No

Text
ID : 4
Format : UTF-8
Codec ID : S_TEXT/UTF8
Codec ID/Info : UTF-8 Plain Text
Language : English
Default : No
Forced : No

Menu
00:00:00.000 : en:00:00:00.000
00:06:17.961 : en:00:06:17.961
00:12:44.013 : en:00:12:44.013
00:18:11.048 : en:00:18:11.048
00:27:18.303 : en:00:27:18.303
00:31:22.672 : en:00:31:22.672
00:36:54.337 : en:00:36:54.337
00:42:25.042 : en:00:42:25.042
00:47:59.960 : en:00:47:59.960
00:54:46.992 : en:00:54:46.992
00:59:12.424 : en:00:59:12.424
01:06:39.537 : en:01:06:39.537
01:12:08.908 : en:01:12:08.908
01:18:46.597 : en:01:18:46.597
01:24:15.801 : en:01:24:15.801
01:31:56.094 : en:01:31:56.094
Релиз от:

Автор релиза: piratbit.pw



Скачать Первое убийство через торрент http://s019.radikal.ru/i611/1707/8e/60c0f458db67.jpg Скачать фильм Первое убийство через торрент бесплантно в хорошем качестве Описание: Фильм об опытном офицере, который расследует похищение мальчика, ставшего свидетелем разборки между банковскими грабителями. ... 10 10 2
Info! Золотая раздача, скачанное не засчитывается.
Торрент: Зарегистрирован [2017-08-27 18:42] · скачан: 115 раз
Статус: √ проверено
Размер: 1.95 GB
Как cкачать? Как скачать Первое убийство через торрент | UTorrent

% Раздел Тема Автор DL S | L
T Фильмы 2017 [DVDrip, WEB-DLRip, HDrip] (DUB, MVO) [ 1.81 GB ] Первое убийство / First Kill [2017 HDRip-AVC] MVO [Paradox&Omskbird] - ExKinoRay Enigma2010 Скачать
1 | 0
Фильмы с авторской озвучкой [ 1.45 GB ] Первое убийство / First Kill [2017 HDRip] AVO [BadBajo] - ExKinoRay Enigma2010 Скачать
1 | 0

28-11-2019 20:33  

Отключить всю рекламу на сайте

    Дорогой пользователь! Огромная просьба, поблагодарите релизера, оцените раздачу и оставьте свои комментарий, если Вы скачали Первое убийство через торрент бесплатно! Внесите свою лепту в развитие PiratBit!
    Комментировать посты могут только пользователи прошедшие не сложную регистрацию
    Показать сообщения:    

    Первое убийство через торрент
    Скачать бесплатно Первое убийство
    Первое убийство скачать торрент
    Первое убийство смотреть онлайн
    Cкачать фильм Первое убийство бесплатно
    Первое убийство скачать торрент в хорошем качестве
    Первое убийство смотреть онлайн бесплатно в хорошем качестве


    Вы не можете начинать темы
    Вы не можете отвечать на сообщения
    Вы не можете редактировать свои сообщения
    Вы не можете удалять свои сообщения
    Вы не можете голосовать в опросах
    Вы не можете прикреплять файлы к сообщениям
    Вы можете скачивать файлы