Marvel's Avengers Deluxe Edition (супер цена) 159р. Внимание количество ограничено!!!

2 сезон

iTunes

iTunes

1

iTunes

iTunes

iTunes

WEBRip

iTunes

30
pack

Новость дня

ВАЖНО

!!Акция!!

Alien_RageХит недели

RePack

Horizon Zero Dawn

ИГРА 18+

pack

RePack

jed

!!Акция!!

Alien_Rage

RePack

fifa19

RePack

Assassins Creed: Odyssey

RePack

NEED FOR SPEED™ PAYBACK

4 сезон

9 сезон

Бесстыжие 9 сезон

Все сериалы

все сериалы на PB.wtf

RePack

FAR CRY 5
  

Ковчег (Александр Котт) [2017, Мелодрама, HDTV 1080i] piratbit.pw

Ковчег через торрент piratbit.pw

Размер: 3.7 GB | Добавлен: 3 года 1 мес. назад | Торрент скачан:116 раз
Скачать  

20-08-2017 06:23 Ковчег Скачать торрент  

Ковчег
Год выпуска: 2017
Страна: Россия
Жанр: Мелодрама
Продолжительность: 01:22:56
Субтитры: отсутствуют

Режиссер: Александр Котт

В ролях:

Александр Балуев, Павел Баршак, Вера Глаголева, Катерина Шпица, Дмитрий Горевой, Михаил Горевой, Ольга Лерман, Нина Станиславская

Описание:

В одном из приморских городков живёт удивительный человек Николай со своей семьёй. Он знаменит на всю округу, и если что-то случается с кем-то из жителей, сразу обращаются к нему. Как к высшему судье и надёжному заступнику.
У Николая есть свой бизнес, но известен он не этим. В гостинице, которой владеет Николай, находят приют и убежище все, кто гоним злой волей обстоятельств, интригами завистников и откровенных недругов. И денег за это Николай не берёт, а наоборот - помогает, как может, обустроиться несчастным. За это его и прозвали Ноем, а его гостиницу - ковчегом. Жена Николая Анна - его верный друг, она полностью разделяет его точку зрения на мир и во всём старается ему помочь.

Качество: HDTV 1080i
Формат: MPEG-TS
Видео кодек: H.264
Аудио кодек: AC3/MP2

Видео: AVC, 5484 Кбит/с, 1920x1080
Аудио#1: Русский (AC3, 2 ch, 384 Кбит/с)
Аудио#2: Русский (MP2, 2 ch, 192 Кбит/с)
скриншот   скриншот   скриншот   скриншот  

Общее
Идентификатор : 1 (0x1)
Полное имя : D:\Kovcheg.HDTV(1080i).GeneralFilm.ts
Формат : MPEG-TS
Размер файла : 3,70 Гбайт
Продолжительность : 1 ч. 22 м.
Режим общего битрейта : Переменный
Общий поток : 6381 Кбит/сек

Видео
Идентификатор : 1904 (0x770)
Идентификатор меню : 80 (0x50)
Формат : AVC
Формат/Информация : Advanced Video Codec
Профиль формата : High@L4
Параметр CABAC формата : Да
Параметр ReFrames формата : 3 кадра
Идентификатор кодека : 27
Продолжительность : 1 ч. 22 м.
Битрейт : 5484 Кбит/сек
Ширина : 1920 пикселей
Высота : 1080 пикселей
Соотношение сторон : 16:9
Частота кадров : 25,000 кадров/сек
Стандарт вещания : Component
Цветовое пространство : YUV
Субдискретизация насыщенности : 4:2:0
Битовая глубина : 8 бит
Тип развёртки : Чересстрочная
Метод сохранения типа развёртки : Раздельные поля
Порядок развёртки : Верхнее поле первое
Бит/(Пиксели*Кадры) : 0.106
Размер потока : 3,18 Гбайт (86%)
Цветовой диапазон : Limited
Основные цвета : BT.709
Характеристики трансфера : BT.709
Коэффициенты матрицы : BT.709

Аудио #1
Идентификатор : 2904 (0xB58)
Идентификатор меню : 80 (0x50)
Формат : AC-3
Формат/Информация : Audio Coding 3
Расширение режима : CM (complete main)
Параметр Endianness формата : Big
Идентификатор кодека : 6
Продолжительность : 1 ч. 22 м.
Вид битрейта : Постоянный
Битрейт : 384 Кбит/сек
Каналы : 6 каналов
Расположение каналов : Front: L C R, Side: L R, LFE
Частота : 48,0 КГц
Частота кадров : 31,250 кадров/сек (1536 spf)
Метод сжатия : С потерями
Задержка видео : -120 мс.
Размер потока : 228 Мбайт (6%)
Язык : Russian

Аудио #2
Идентификатор : 2905 (0xB59)
Идентификатор меню : 80 (0x50)
Формат : MPEG Audio
Версия формата : Version 1
Профиль формата : Layer 2
Идентификатор кодека : 3
Продолжительность : 1 ч. 22 м.
Вид битрейта : Постоянный
Битрейт : 192 Кбит/сек
Каналы : 2 канала
Частота : 48,0 КГц
Метод сжатия : С потерями
Задержка видео : -120 мс.
Размер потока : 114 Мбайт (3%)
Язык : Russian

piratbit.pw



Скачать Ковчег через торрент http://s48.radikal.ru/i122/1708/f7/8e6d5b753568.jpg Скачать фильм Ковчег через торрент бесплантно в хорошем качестве Описание: В одном из приморских городков живёт удивительный человек Николай со своей семьёй. Он знаменит на всю округу, и если что-то ... 10 10 5
Торрент: Зарегистрирован [2017-08-20 06:23] · скачан: 116 раз
Статус: √ проверено
Размер: 3.7 GB
Как cкачать? Как скачать Ковчег через торрент | qTorrent

% Раздел Тема Автор DL S | L
Фильмы до 2000 г. [ 2.05 GB ] Индиана Джонс: В поисках утраченного ковчега / Raiders of the Lost Ark [1981 HDTVRip ] кэп Скачать
1 | 0
Фильмы [HD 720p, 1080p] (Хороший звук DUB, MVO) [ 14.62 GB ] Индиана Джонс: В поисках утраченного ковчега / Raiders of the Lost Ark [1981 BDRip-HEVC 1080p от KORSAR][5xMVO + DVO + 8xAVO] Cthulhu Скачать
1 | 0
Рок, Панк, Альтернатива (mp3) [ 1.39 GB ] VA - Ковчег: Сборник Русского Рока 2019 / MP3 / 320 kbps / Рок bober100 Скачать
1 | 0
National Geographic [ 1.18 GB ] National Geographic: Тайны святых ковчегов / Mysteries of the Holy Arks [2018 ДокументальныйDVB ] Armstrong Скачать
1 | 0
Фантастика [ 1.28 GB ] Аластер Рейнольдс - Пространство Откровения 3. Ковчег спасения [Оробчук Сергей 2018 128 kbps MP3] bober100 Скачать
1 | 0
Рок, Панк, Альтернатива (mp3) [ 134 MB ] Ольга Арефьева и Ковчег - Ияо 2018 / MP3 / 320 kbps / Рок oleg8 Скачать
1 | 0
Рок, Панк, Альтернатива (mp3) [ 115 MB ] Ольга Арефьева и Ковчег - Триптиц 2017 / MP3 / 320 kbps / Рок oleg8 Скачать
1 | 0

28-11-2019 20:33  

Отключить всю рекламу на сайте

    Дорогой пользователь! Огромная просьба, поблагодарите релизера, оцените раздачу и оставьте свои комментарий, если Вы скачали Ковчег через торрент бесплатно! Внесите свою лепту в развитие PiratBit!
    Комментировать посты могут только пользователи прошедшие не сложную регистрацию
    Показать сообщения:    

    Ковчег через торрент
    Скачать бесплатно Ковчег
    Ковчег скачать торрент
    Ковчег смотреть онлайн
    Cкачать фильм Ковчег бесплатно
    Ковчег скачать торрент в хорошем качестве
    Ковчег смотреть онлайн бесплатно в хорошем качестве


    Вы не можете начинать темы
    Вы не можете отвечать на сообщения
    Вы не можете редактировать свои сообщения
    Вы не можете удалять свои сообщения
    Вы не можете голосовать в опросах
    Вы не можете прикреплять файлы к сообщениям
    Вы можете скачивать файлы