1 сезон

1 сезон

iTunes

1

КиноПоиск HD

Кинопоиск HD

iTunes

13

1 сезон

RePack

30

Новинка

ВАЖНО

ИГРА 18+

pack

RePack

MK11
pack

Легкие деньги

RePack

jed

RePack

fifa19

RePack

RDR2

RePack

NEED FOR SPEED™ PAYBACK

4 сезон

9 сезон

Бесстыжие 9 сезон

Все сериалы

все сериалы на PB.wtf

RePack

FAR CRY 5
  
Magnet ссылка

Рубильник / Передельщик / Redivider / Kill Switch (Тим Смит) [2017, Фантастика, BDRip 720p] AVO [BadBajo] - ExKinoRay piratbit.pw

Рубильник через торрент piratbit.pw

Размер: 3.07 GB | Добавлен: 3 года 8 мес. назад | Торрент скачан:155 раз
Скачать  

18-08-2017 02:44 Рубильник Скачать торрент  

Информация о фильме
Название: Передельщик
Оригинальное название: Redivider (Kill Switch)
Год выпуска: 2017
Жанр: Фантастика
Страна: Нидерланды, Германия, США
Студия: CTM Productions BV, FilmNation Entertainment
Продолжительность: 01:31:51
Озвучивание: Авторское (одноголосое) [BadBajo]
Режиссер: Тим Смит
В ролях: Дэн Стивенс, Беренис Марло, Чарити Уэйкфилд, Тиго Гернандт, Хлоя-Мэй Катхилл, Гийс Шолтен ван Ашат, Бас Кейзер, Дон Альфонсо, Мике Либанон, Майк Реус

Описание:
История о пилоте, который пытается спасти свою семью и планету после провала эксперимента с использованием неограниченной энергии, проводимого, чтобы обуздать параллельные вселенные.


rating

Файл
Формат: MKV
Качество: BDRip 720p
Видео: MPEG-4 AVC, 1280x536 (2.40:1), 3754 Kbit/s, 23.976 fps, 0.228 bits/pixel
Аудио #01: 48 kHz, AC3, 5.1, 384 Kbps | BadBajo | RUS
Аудио #02: 48 kHz, AC3, 5.1, 640 Kbps | Оригинал | ENG

Без какой-либо рекламы
General
Unique ID : 214370201925357441672997872095733157852 (0xA14632F8B12566B89A63950A4A930FDC)
Complete name : D:\Kill.Switch.2017.AVO.BDRip.720p.ExKinoRay.mkv
Format : Matroska
Format version : Version 2
File size : 3.07 GiB
Duration : 1 h 31 min
Overall bit rate : 4 779 kb/s
Movie name : Redivider (2017) from ExKinoRay
Encoded date : UTC 2017-08-18 01:45:10
Writing application : mkvmerge v5.6.0 ('Kenya Kane') built on May 27 2012 16:44:04
Writing library : libebml v1.2.3 + libmatroska v1.3.0

Video
ID : 1
Format : AVC
Format/Info : Advanced Video Codec
Format profile : High@L4.1
Format settings, CABAC : Yes
Format settings, ReFrames : 12 frames
Codec ID : V_MPEG4/ISO/AVC
Duration : 1 h 31 min
Bit rate : 3 754 kb/s
Width : 1 280 pixels
Height : 536 pixels
Display aspect ratio : 2.40:1
Frame rate mode : Constant
Frame rate : 23.976 (23976/1000) FPS
Color space : YUV
Chroma subsampling : 4:2:0
Bit depth : 8 bits
Scan type : Progressive
Bits/(Pixel*Frame) : 0.228
Stream size : 2.35 GiB (77%)
Title : Enigma
Writing library : x264 core 144 r2525 40bb568
Encoding settings : cabac=1 / ref=12 / deblock=1:-2:-2 / analyse=0x3:0x113 / me=umh / subme=10 / psy=1 / psy_rd=1.00:0.05 / mixed_ref=1 / me_range=32 / chroma_me=0 / trellis=2 / 8x8dct=1 / cqm=0 / deadzone=21,11 / fast_pskip=1 / chroma_qp_offset=-3 / threads=12 / lookahead_threads=1 / sliced_threads=0 / nr=0 / decimate=0 / interlaced=0 / bluray_compat=0 / constrained_intra=0 / bframes=10 / b_pyramid=2 / b_adapt=1 / b_bias=0 / direct=3 / weightb=1 / open_gop=0 / weightp=2 / keyint=240 / keyint_min=23 / scenecut=40 / intra_refresh=0 / rc_lookahead=40 / rc=2pass / mbtree=0 / bitrate=3754 / ratetol=1.0 / qcomp=0.62 / qpmin=0 / qpmax=51 / qpstep=4 / cplxblur=20.0 / qblur=0.5 / vbv_maxrate=50000 / vbv_bufsize=62500 / nal_hrd=none / filler=0 / ip_ratio=1.40 / pb_ratio=1.30 / aq=1:1.00
Language : English
Default : Yes
Forced : No
Color range : Limited
Color primaries : BT.709
Transfer characteristics : BT.709
Matrix coefficients : BT.709

Audio #1
ID : 2
Format : AC-3
Format/Info : Audio Coding 3
Mode extension : CM (complete main)
Format settings, Endianness : Big
Codec ID : A_AC3
Duration : 1 h 31 min
Bit rate mode : Constant
Bit rate : 384 kb/s
Channel(s) : 6 channels
Channel positions : Front: L C R, Side: L R, LFE
Sampling rate : 48.0 kHz
Frame rate : 31.250 FPS (1536 spf)
Compression mode : Lossy
Stream size : 252 MiB (8%)
Title : AVO (BadBajo)
Language : Russian
Default : Yes
Forced : No

Audio #2
ID : 3
Format : AC-3
Format/Info : Audio Coding 3
Mode extension : CM (complete main)
Format settings, Endianness : Big
Codec ID : A_AC3
Duration : 1 h 31 min
Bit rate mode : Constant
Bit rate : 640 kb/s
Channel(s) : 6 channels
Channel positions : Front: L C R, Side: L R, LFE
Sampling rate : 48.0 kHz
Frame rate : 31.250 FPS (1536 spf)
Compression mode : Lossy
Stream size : 420 MiB (13%)
Language : English
Default : No
Forced : No

Text
ID : 4
Format : UTF-8
Codec ID : S_TEXT/UTF8
Codec ID/Info : UTF-8 Plain Text
Language : English
Default : No
Forced : No

Menu
00:00:34.000 : en:Opening Sequence
00:06:11.000 : en:Echo Damage Report
00:11:54.000 : en:In The Dark
00:17:53.000 : en:Gravitational Portal
00:24:24.000 : en:Restricted Area
00:30:02.000 : en:Greatest Challenge Yet
00:37:19.000 : en:Homesick
00:41:35.000 : en:They Evacuated
00:47:44.000 : en:Back Me Up
00:53:58.000 : en:It's This Whole Place
00:58:43.000 : en:Give Me The Box
01:04:56.000 : en:Don't Go
01:09:37.000 : en:Don't Trust Him
01:15:36.000 : en:Where's The Box?
01:21:47.000 : en:A Big Responsibility
01:28:01.000 : en:End Credits
Релиз от:

Автор релиза: piratbit.pw



Скачать Рубильник через торрент http://lostpix.com/img/2017-05/20/hpgbczpq7hyao7s76foayi85c.jpg Скачать фильм Рубильник через торрент бесплантно в хорошем качестве Описание: История о пилоте, который пытается спасти свою семью и планету после провала эксперимента с использованием неограниченной ... 10 10 2
Info! Золотая раздача, скачанное не засчитывается.
Торрент: Зарегистрирован [2017-08-18 02:44] · скачан: 155 раз
Статус: √ проверено
Размер: 3.07 GB
Как cкачать? Как скачать Рубильник через торрент | UTorrent

% Раздел Тема Автор DL S | L
Фильмы с авторской озвучкой [ 1.37 GB ] Рубильник / Передельщик / Redivider / Kill Switch [2017 BDRip] AVO [BadBajo] - ExKinoRay Enigma2010 Скачать
1 | 0

28-11-2019 20:33  

Отключить всю рекламу на сайте

    Дорогой пользователь! Огромная просьба, поблагодарите релизера, оцените раздачу и оставьте свои комментарий, если Вы скачали Рубильник через торрент бесплатно! Внесите свою лепту в развитие PiratBit!
    Комментировать посты могут только пользователи прошедшие не сложную регистрацию
    Показать сообщения:    

    Рубильник через торрент
    Скачать бесплатно Рубильник
    Рубильник скачать торрент
    Рубильник смотреть онлайн
    Cкачать фильм Рубильник бесплатно
    Рубильник скачать торрент в хорошем качестве
    Рубильник смотреть онлайн бесплатно в хорошем качестве


    Вы не можете начинать темы
    Вы не можете отвечать на сообщения
    Вы не можете редактировать свои сообщения
    Вы не можете удалять свои сообщения
    Вы не можете голосовать в опросах
    Вы не можете прикреплять файлы к сообщениям
    Вы можете скачивать файлы