Ссылка на приватное зеркало нашего сайта всего за 1$. Внимание количество ограничено!!!

2 сезон

iTunes

iTunes

1

iTunes

iTunes

iTunes

WEBRip

iTunes

30
pack

Вам бонус

ВАЖНО

!!Акция!!

Alien_RageХит недели

RePack

Horizon Zero Dawn

ИГРА 18+

pack

RePack

jed

!!Акция!!

Alien_Rage

RePack

fifa19

RePack

Assassins Creed: Odyssey

RePack

NEED FOR SPEED™ PAYBACK

4 сезон

9 сезон

Бесстыжие 9 сезон

Все сериалы

все сериалы на PB.wtf

RePack

FAR CRY 5
  

Черная вода (Роман Каримов) [2017, Ужасы, драма, WEB-DL 1080p] [iTunes] piratbit.pw

Черная вода через торрент piratbit.pw

Размер: 3.87 GB | Добавлен: 3 года 1 мес. назад | Торрент скачан:215 раз
Скачать  

17-08-2017 13:46 Черная вода Скачать торрент  

Черная водаГод выпуска: 2017
Страна: Россия
Жанр: Ужасы, драма
Продолжительность: 01:52:40
Язык: Русский| iTunes
Субтитры: отсутствуют

Режиссер: Роман Каримов



В ролях:

Ирина Старшенбаум, Евгений Алёхин, Дмитрий Богдан, Сергей Белый, Наталья Шапошникова, Инна Егорова

Описание:

Трое молодых людей - Максим, его брат Петр и его новая девушка, Полина, - приезжают в забытую Богом деревню, где поселяются на старом заброшенном корабле, у которого среди местных очень дурная слава. Неожиданно ночью Полина исчезает, и братья бросаются на ее поиски. А когда она так же неожиданно возвращается, вокруг начинают происходить странные вещи. Максим опасается за девушку, а у его брата возникают подозрения, что это... уже не Полина.

Качество: WEB-DL 1080p
Формат: MKV
Видео кодек: H.264
Аудио кодек: AC3

Видео: 1920x804, ~4538 Kbps, 24 fps
Аудио: AC3, 6 ch, 384 Кбит/с, 48 KHz
скриншот   скриншот   скриншот   скриншот  

Общее
Уникальный идентификатор : 206785537843365242624303925614410153503 (0x9B9172291D9E258FB5150DF9A90F3E1F)
Полное имя : D:\Mutnaya.Vodichka.2017.WEB-DL.1080p.mkv
Формат : Matroska
Версия формата : Version 2
Размер файла : 3,87 Гбайт
Продолжительность : 1 ч. 52 м.
Общий поток : 4924 Кбит/сек
Дата кодирования : UTC 2017-08-16 18:57:32
Программа кодирования : mkvmerge v8.3.0 ('Over the Horizon') 64bit
Библиотека кодирования : libebml v1.3.1 + libmatroska v1.4.2

Видео
Идентификатор : 1
Формат : AVC
Формат/Информация : Advanced Video Codec
Профиль формата : High@L4
Параметр CABAC формата : Да
Параметр ReFrames формата : 5 кадров
Идентификатор кодека : V_MPEG4/ISO/AVC
Продолжительность : 1 ч. 52 м.
Битрейт : 4538 Кбит/сек
Ширина : 1920 пикселей
Высота : 804 пикселя
Соотношение сторон : 2,40:1
Режим частоты кадров : Постоянный
Частота кадров : 24,000 кадра/сек
Цветовое пространство : YUV
Субдискретизация насыщенности : 4:2:0
Битовая глубина : 8 бит
Тип развёртки : Прогрессивная
Бит/(Пиксели*Кадры) : 0.122
Размер потока : 3,57 Гбайт (92%)
Язык : English
Default : Да
Forced : Нет
Цветовой диапазон : Limited
Основные цвета : BT.709
Характеристики трансфера : BT.709
Коэффициенты матрицы : BT.709

Аудио
Идентификатор : 2
Формат : AC-3
Формат/Информация : Audio Coding 3
Расширение режима : CM (complete main)
Параметр Endianness формата : Big
Идентификатор кодека : A_AC3
Продолжительность : 1 ч. 52 м.
Вид битрейта : Постоянный
Битрейт : 384 Кбит/сек
Каналы : 6 каналов
Расположение каналов : Front: L C R, Side: L R, LFE
Частота : 48,0 КГц
Частота кадров : 31,250 кадров/сек (1536 spf)
Метод сжатия : С потерями
Размер потока : 309 Мбайт (8%)
Язык : Russian
Default : Да
Forced : Нет

Меню
00:00:00.000 : en:Глава 1
00:04:52.083 : en:Глава 2
00:11:20.374 : en:Глава 3
00:17:47.582 : en:Глава 4
00:25:17.123 : en:Глава 5
00:33:38.539 : en:Глава 6
00:42:19.205 : en:Глава 7
00:47:43.246 : en:Глава 8
00:54:42.037 : en:Глава 9
01:01:05.162 : en:Глава 10
01:08:26.912 : en:Глава 11
01:15:03.953 : en:Глава 12
01:20:51.494 : en:Глава 13
01:26:08.619 : en:Глава 14
01:32:36.285 : en:Глава 15
01:38:22.410 : en:Глава 16
piratbit.pw



Скачать Черная вода через торрент http://img11.lostpic.net/2017/07/14/55967d86c88de5fbd7e46892c58d08cc.png Скачать фильм Черная вода через торрент бесплантно в хорошем качестве Описание: Трое молодых людей - Максим, его брат Петр и его новая девушка, Полина, - приезжают в забытую Богом деревню, где поселяются на ... 10 10 9
Торрент: Зарегистрирован [2017-08-17 13:46] · скачан: 215 раз
Статус: √ проверено
Размер: 3.87 GB
Как cкачать? Как скачать Черная вода через торрент | qTorrent

% Раздел Тема Автор DL S | L
Фильмы 2018 [DVDrip, WEB-DLRip, HDrip] (DUB, MVO) [ 1.42 GB ] Чёрные воды / Black Water [2018 BDRip] MVO Twi7ter Скачать
5 | 0
Фильмы [HD 720p, 1080p] (Хороший звук DUB, MVO) [ 12 GB ] Чёрные воды / Black Water [2018 BDRip 1080p] [MVO] () + [MVO] + [DVO] killermax2013 Скачать
2 | 0
# Фильмы (мультфильмы) cо спонсором показа (Новинки AVI/MKV) [ 9.58 GB ] Чёрные воды / Black Water [2018 BDRip 1080p] DUB [Line] bober100 Скачать
1 | 0
# Фильмы (мультфильмы) cо спонсором показа (Новинки AVI/MKV) [ 5.55 GB ] Чёрные воды / Black Water [2018 BDRip 720p] DUB [Line] bober100 Скачать
1 | 0
Фильмы 2018 [DVDrip, WEB-DLRip, HDrip] (DUB, MVO) [ 1.46 GB ] Чёрные воды / Black Water [2018 BDRip] MVO bober100 Скачать
1 | 0
T Фильмы 2018 [DVDrip, WEB-DLRip, HDrip] (DUB, MVO) [ 1.98 GB ] Чёрные воды / Black Water [2018 BDRip-AVC] MVO [HDRezka Studio] - ExKinoRay Enigma2010 Скачать
1 | 0
T Фильмы [HD 720p, 1080p] (Хороший звук DUB, MVO) [ 5.26 GB ] Чёрные воды / Black Water [2018 BDRip 720p] MVO [HDRezka Studio] bober100 Скачать
2 | 0

28-11-2019 20:33  

Отключить всю рекламу на сайте

18-08-2017 11:56 Черная вода Скачать торрент  

шляпио?piratbit.pw



18-08-2017 16:32 Черная вода Скачать торрент  

edapush писал(а):

шляпио?

Не то слово!.. Не получились ужасы. Даже на триллер еле катит. Не научились ещё ужасы снимать.piratbit.pw



    Дорогой пользователь! Огромная просьба, поблагодарите релизера, оцените раздачу и оставьте свои комментарий, если Вы скачали Черная вода через торрент бесплатно! Внесите свою лепту в развитие PiratBit!
    Комментировать посты могут только пользователи прошедшие не сложную регистрацию
    Показать сообщения:    

    Черная вода через торрент
    Скачать бесплатно Черная вода
    Черная вода скачать торрент
    Черная вода смотреть онлайн
    Cкачать фильм Черная вода бесплатно
    Черная вода скачать торрент в хорошем качестве
    Черная вода смотреть онлайн бесплатно в хорошем качестве


    Вы не можете начинать темы
    Вы не можете отвечать на сообщения
    Вы не можете редактировать свои сообщения
    Вы не можете удалять свои сообщения
    Вы не можете голосовать в опросах
    Вы не можете прикреплять файлы к сообщениям
    Вы можете скачивать файлы