Ссылка на приватное зеркало нашего сайта всего за 1$. Внимание количество ограничено!!!

2 сезон

iTunes

iTunes

1

iTunes

iTunes

iTunes

WEBRip

iTunes

30
pack

Вам бонус

ВАЖНО

!!Акция!!

Alien_RageХит недели

RePack

Horizon Zero Dawn

ИГРА 18+

pack

RePack

jed

!!Акция!!

Alien_Rage

RePack

fifa19

RePack

Assassins Creed: Odyssey

RePack

NEED FOR SPEED™ PAYBACK

4 сезон

9 сезон

Бесстыжие 9 сезон

Все сериалы

все сериалы на PB.wtf

RePack

FAR CRY 5
  

Блокбастер (Роман Волобуев) [2017, криминал, комедия, WEB-DL 1080p] [iTunes] piratbit.pw

Блокбастер через торрент piratbit.pw

Размер: 2.81 GB | Добавлен: 3 года 1 мес. назад | Торрент скачан:307 раз
Скачать  

15-08-2017 16:46 Блокбастер Скачать торрент  

БлокбастерГод выпуска: 2017
Страна: Россия
Жанр: криминал, комедия
Продолжительность: 01:21:25
Субтитры: отсутствуют

Режиссер: Роман Волобуев

rating

В ролях:

Светлана Устинова, Анна Чиповская, Евгений Цыганов, Юлия Снигирь, Михаил Ефремов, Александр Молочников, Дмитрий Ендальцев, Светлана Ходченкова, Мария Шалаева, Александр Ильин

Описание:

Лиза, доведенная до нервного срыва коллегами на опостылевшей работе и распутным бойфрендом, садится в машину и уезжает из Москвы в неизвестном ей самой направлении. Глухой ночью она становится свидетельницей налета на точку микрокредитования в райцентре Электроугли и оказывается в заложниках у ослепительно красивой, но очень плохо соображающей грабительницы по имени Наташа.

Качество: WEB-DL 1080p
Формат: MKV
Видео кодек: H.264
Аудио кодек: AC3

Видео: 1920x806 at 24.000 fps, MPEG-4 AVC, ~4462 kbps avg
Аудио: Russian: 48 kHz, AC3, 3/2 (L,C,R,l,r) + LFE ch, ~384.00 kbps avg |iTunes|
скриншот   скриншот   скриншот   скриншот   скриншот  

Общее
Уникальный идентификатор : 242118981964312477017705855165022720591 (0xB6266B748973745C845D4C7F6BD1D24F)
Полное имя : D:\Blokbaster.2017.1080p.WEB-DL.mkv
Формат : Matroska
Версия формата : Version 4 / Version 2
Размер файла : 2,81 Гбайт
Продолжительность : 1 ч. 21 м.
Общий поток : 4945 Кбит/сек
Название фильма : BLOCKBUSTER_WEB_DL_1080p-BLUEBIRD
Дата кодирования : UTC 2017-08-15 12:34:58
Программа кодирования : mkvmerge v6.9.1 ('Blue Panther') 32bit built on Apr 18 2014 18:15:44
Библиотека кодирования : libebml v1.3.0 + libmatroska v1.4.1

Видео
Идентификатор : 1
Формат : AVC
Формат/Информация : Advanced Video Codec
Профиль формата : High@L4
Параметр CABAC формата : Да
Параметр ReFrames формата : 5 кадров
Идентификатор кодека : V_MPEG4/ISO/AVC
Продолжительность : 1 ч. 21 м.
Битрейт : 4462 Кбит/сек
Ширина : 1920 пикселей
Высота : 806 пикселей
Соотношение сторон : 2,40:1
Режим частоты кадров : Постоянный
Частота кадров : 24,000 кадра/сек
Цветовое пространство : YUV
Субдискретизация насыщенности : 4:2:0
Битовая глубина : 8 бит
Тип развёртки : Прогрессивная
Бит/(Пиксели*Кадры) : 0.120
Размер потока : 2,54 Гбайт (90%)
Заголовок : BLOCKBUSTER_WEB_DL_1080p-BLUEBIRD
Язык : English
Default : Да
Forced : Нет
Цветовой диапазон : Limited
Основные цвета : BT.709
Характеристики трансфера : BT.709
Коэффициенты матрицы : BT.709

Аудио
Идентификатор : 2
Формат : AC-3
Формат/Информация : Audio Coding 3
Расширение режима : CM (complete main)
Параметр Endianness формата : Big
Идентификатор кодека : A_AC3
Продолжительность : 1 ч. 21 м.
Вид битрейта : Постоянный
Битрейт : 384 Кбит/сек
Каналы : 6 каналов
Расположение каналов : Front: L C R, Side: L R, LFE
Частота : 48,0 КГц
Частота кадров : 31,250 кадров/сек (1536 spf)
Метод сжатия : С потерями
Размер потока : 224 Мбайт (8%)
Заголовок : [ORIGINAL] DD 5.1 @ 384 kbps (iTunes)
Язык : Russian
Default : Да
Forced : Нет

Меню
00:00:00.000 : en:Глава 1
00:06:08.000 : en:Глава 2
00:11:37.125 : en:Глава 3
00:16:13.291 : en:Глава 4
00:22:34.124 : en:Глава 5
00:28:13.124 : en:Глава 6
00:34:11.999 : en:Глава 7
00:41:00.624 : en:Глава 8
00:46:45.790 : en:Глава 9
00:50:48.790 : en:Глава 10
00:56:24.081 : en:Глава 11
01:00:15.206 : en:Глава 12
01:05:21.372 : en:Глава 13
01:11:53.913 : en:Глава 14
piratbit.pw



Скачать Блокбастер через торрент http://img11.lostpic.net/2017/07/14/c0ad03f5a13a8e0366a2317b4f036698.png Скачать фильм Блокбастер через торрент бесплантно в хорошем качестве Описание: Лиза, доведенная до нервного срыва коллегами на опостылевшей работе и распутным бойфрендом, садится в машину и уезжает из Москвы ... 8.4 10 9
Info! Золотая раздача, скачанное не засчитывается.
Торрент: Зарегистрирован [2017-08-15 16:46] · скачан: 307 раз
Статус: √ проверено
Размер: 2.81 GB
Как cкачать? Как скачать Блокбастер через торрент | qTorrent

% Раздел Тема Автор DL S | L
Отечественная Поп музыка (mp3) [ 98 MB ] Блокбастер - Упрямый дождь 2020 / MP3 / 320 kbps / Поп bober100 Скачать
1 | 0
Отечественная Поп музыка (mp3) [ 178 MB ] Блокбастер - Альбом №8 2018 / MP3 / 320 kbps / Поп bober100 Скачать
1 | 0
Документальные фильмы и телепередачи [ 829 MB ] Бомбы и блокбастеры Тинсельтауна / Boffo! Tinseltown's Bombs and Blockbusters [2006 документальный DVDRip] [Sub Rus] killermax2013 Скачать
1 | 0
Сборники отечественного шансона [ 890 MB ] VA - Блокбастер Кавказ 2018 / MP3 / 320 kbps / Кавказская музыка Поп bober100 Скачать
1 | 0
Наши новые фильмы 2017 [ 1.2 GB ] Блокбастер [2017 WEB-DLRip-AVC] bober100 Скачать
2 | 0
Наши фильмы (HD, WEB-DL 720p, 1080p) [ 2.15 GB ] Блокбастер [2017 WEB-DL 720p] DEVI Скачать
1 | 0
Наши новые фильмы 2017 [ 1.45 GB ] Блокбастер [2017 WEB-DLRip] bober100 Скачать
1 | 0

28-11-2019 20:33  

Отключить всю рекламу на сайте

07-10-2017 13:55 Блокбастер Скачать торрент  

Спасибо.
чушь полная, местами мелькали искры разума.
5 из 10
Качество отличное.piratbit.pw



    Дорогой пользователь! Огромная просьба, поблагодарите релизера, оцените раздачу и оставьте свои комментарий, если Вы скачали Блокбастер через торрент бесплатно! Внесите свою лепту в развитие PiratBit!
    Комментировать посты могут только пользователи прошедшие не сложную регистрацию
    Показать сообщения:    

    Блокбастер через торрент
    Скачать бесплатно Блокбастер
    Блокбастер скачать торрент
    Блокбастер смотреть онлайн
    Cкачать фильм Блокбастер бесплатно
    Блокбастер скачать торрент в хорошем качестве
    Блокбастер смотреть онлайн бесплатно в хорошем качестве


    Вы не можете начинать темы
    Вы не можете отвечать на сообщения
    Вы не можете редактировать свои сообщения
    Вы не можете удалять свои сообщения
    Вы не можете голосовать в опросах
    Вы не можете прикреплять файлы к сообщениям
    Вы можете скачивать файлы