Ссылка на приватное зеркало нашего сайта всего за 1$. Внимание количество ограничено!!!

2 сезон

iTunes

iTunes

1

iTunes

iTunes

iTunes

WEBRip

iTunes

30
pack

Новость дня

ВАЖНО

!!Акция!!

Alien_RageХит недели

RePack

Horizon Zero Dawn

ИГРА 18+

pack

RePack

jed

!!Акция!!

Alien_Rage

RePack

fifa19

RePack

Assassins Creed: Odyssey

RePack

NEED FOR SPEED™ PAYBACK

4 сезон

9 сезон

Бесстыжие 9 сезон

Все сериалы

все сериалы на PB.wtf

RePack

FAR CRY 5
  

Держи удар, детка (Ара Оганесян) [2016, Комедия, мелодрама, WEB-DL 720p] [iTunes] piratbit.pw

Держи удар, детка через торрент piratbit.pw

Размер: 3.1 GB | Добавлен: 3 года 1 мес. назад | Торрент скачан:227 раз
Скачать  

13-08-2017 14:40 Держи удар, детка Скачать торрент  

Держи удар детка
Год выпуска: 2016
Страна: Россия
Жанр: Комедия, мелодрама
Продолжительность: 01:41:18
Перевод: Не требуется (русский) | iTunes
Субтитры: отсутствуют

Режиссер: Ара Оганесян



В ролях:

Екатерина Владимирова, Михаил Пореченков, Игорь Верник, Ольга Бузова, Настасья Самбурская, Даниил Вахрушев, Виктор Хориняк, Теймураз Тания, Анна Цуканова, Виталий Гогунский

Описание:

Близняшек Свету и Таню внешне отличить не может никто, но на этом их сходство заканчивается. Света — это женственность и стервозность. Она хочет построить карьеру на телевидении. Таня готовится попасть в сборную России по боксу. Тайсон в юбке. Ее жизнь — это тренировки и спортивный режим.

Качество: WEB-DL 720p
Формат: MKV
Видео кодек: H.264
Аудио кодек: AC3

Видео: MPEG-4 AVC, 4000 Кбит/с, 960х544@1280x544
Аудио: AC3, 2 ch, 384 Кбит/с
скриншот   скриншот   скриншот   скриншот   скриншот  

Общее
Уникальный идентификатор : 228891758763458450224193743033732014992 (0xAC32F300409966B79CC673980E0DA390)
Полное имя : D:\торреннты\DePzh1.udaP.detka.2O16.O.WEB-DL.720p.mkv
Формат : Matroska
Версия формата : Version 2
Размер файла : 3,10 Гбайт
Продолжительность : 1 ч. 41 м.
Общий поток : 4381 Кбит/сек
Дата кодирования : UTC 2016-11-03 20:32:18
Программа кодирования : mkvmerge v7.8.0 ('River Man') 32bit built on Apr 3 2015 12:11:22
Библиотека кодирования : libebml v1.3.1 + libmatroska v1.4.2

Видео
Идентификатор : 1
Формат : AVC
Формат/Информация : Advanced Video Codec
Профиль формата : Main@L3.1
Параметр CABAC формата : Нет
Параметр ReFrames формата : 2 кадра
Идентификатор кодека : V_MPEG4/ISO/AVC
Продолжительность : 1 ч. 41 м.
Битрейт : 3910 Кбит/сек
Ширина : 960 пикселей
Высота : 544 пикселя
Соотношение сторон : 2,35:1
Режим частоты кадров : Постоянный
Частота кадров : 25,000 кадров/сек
Цветовое пространство : YUV
Субдискретизация насыщенности : 4:2:0
Битовая глубина : 8 бит
Тип развёртки : Прогрессивная
Бит/(Пиксели*Кадры) : 0.299
Размер потока : 2,77 Гбайт (89%)
Язык : English
Default : Да
Forced : Нет
Цветовой диапазон : Limited
Основные цвета : BT.709
Характеристики трансфера : BT.709
Коэффициенты матрицы : BT.709
Statistics Tags Issue : mkvmerge v8.3.0 ('Over the Horizon') 64bit 2016-11-03 18:04:42 / mkvmerge v7.8.0 ('River Man') 32bit built on Apr 3 2015 12:11:22 2016-11-03 20:32:18
FromStats_BitRate : 3994932
FromStats_Duration : 01:41:18.080000000
FromStats_FrameCount : 151952
FromStats_StreamSize : 3035190056

Аудио
Идентификатор : 2
Формат : AC-3
Формат/Информация : Audio Coding 3
Расширение режима : CM (complete main)
Параметр Endianness формата : Big
Идентификатор кодека : A_AC3
Продолжительность : 1 ч. 41 м.
Вид битрейта : Постоянный
Битрейт : 384 Кбит/сек
Каналы : 2 канала
Расположение каналов : Front: L R
Частота : 48,0 КГц
Частота кадров : 31,250 кадров/сек (1536 spf)
Метод сжатия : С потерями
Размер потока : 278 Мбайт (9%)
Язык : Russian
Default : Да
Forced : Нет

Меню
00:00:00.000 : en:Глава 1
00:05:57.520 : en:Глава 2
00:12:38.800 : en:Глава 3
00:17:48.360 : en:Глава 4
00:24:01.200 : en:Глава 5
00:29:42.840 : en:Глава 6
00:34:52.680 : en:Глава 7
00:40:39.720 : en:Глава 8
00:46:20.880 : en:Глава 9
00:52:09.080 : en:Глава 10
00:58:55.760 : en:Глава 11
01:05:27.480 : en:Глава 12
01:10:34.840 : en:Глава 13
01:15:53.240 : en:Глава 14
01:23:14.520 : en:Глава 15
01:29:06.320 : en:Глава 16
piratbit.pw



Скачать Держи удар, детка через торрент http://i026.radikal.ru/1611/59/fbe969e072f4.jpg Скачать фильм Держи удар, детка через торрент бесплантно в хорошем качестве Описание: Близняшек Свету и Таню внешне отличить не может никто, но на этом их сходство заканчивается. Света — это женственность и ... 7.4 10 9
Торрент: Зарегистрирован [2017-08-13 14:40] · скачан: 227 раз
Статус: T временная
Размер: 3.1 GB
Как cкачать? Как скачать Держи удар, детка через торрент | qTorrent

% Раздел Тема Автор DL S | L
T Релизы по Парсеру [Игры, Сериалы и Фильмы и другое...] [ 1.46 GB ] Держи удар детка [2016 WEB-DLRip] / Sherif Скачать
1 | 0
T Наши фильмы (HD, WEB-DL 720p, 1080p) [ 3.59 GB ] Держи удар детка [2016 WEB-DL 1080p] [Русский] Userman4ik Скачать
1 | 0
T Релизы по Парсеру [Игры, Сериалы и Фильмы и другое...] [ 746 MB ] Держи удар детка [2016 WEB-DLRip] / Sherif Скачать
1 | 0

28-11-2019 20:33  

Отключить всю рекламу на сайте

    Дорогой пользователь! Огромная просьба, поблагодарите релизера, оцените раздачу и оставьте свои комментарий, если Вы скачали Держи удар, детка через торрент бесплатно! Внесите свою лепту в развитие PiratBit!
    Комментировать посты могут только пользователи прошедшие не сложную регистрацию
    Показать сообщения:    

    Держи удар, детка через торрент
    Скачать бесплатно Держи удар, детка
    Держи удар, детка скачать торрент
    Держи удар, детка смотреть онлайн
    Cкачать фильм Держи удар, детка бесплатно
    Держи удар, детка скачать торрент в хорошем качестве
    Держи удар, детка смотреть онлайн бесплатно в хорошем качестве


    Вы не можете начинать темы
    Вы не можете отвечать на сообщения
    Вы не можете редактировать свои сообщения
    Вы не можете удалять свои сообщения
    Вы не можете голосовать в опросах
    Вы не можете прикреплять файлы к сообщениям
    Вы можете скачивать файлы