1 сезон

1 сезон

iTunes

1

КиноПоиск HD

Кинопоиск HD

iTunes

13

1 сезон

RePack

30

Ultimate

ВАЖНО

ИГРА 18+

pack

RePack

MK11
pack

Легкие деньги

RePack

jed

RePack

fifa19

RePack

RDR2

RePack

NEED FOR SPEED™ PAYBACK

4 сезон

9 сезон

Бесстыжие 9 сезон

Все сериалы

все сериалы на PB.wtf

RePack

FAR CRY 5
  
Magnet ссылка

Легко пришло, легко ушло / Easy Come, Easy Go (Джон Рич) [1967 г., Комедия, приключения, музыка, DVDRip-AVC, Авторский одноголосый Алексей Михалёв] от ExKinoRay piratbit.pw

Легко пришло, легко ушло через торрент piratbit.pw

Размер: 2.32 GB | Добавлен: 3 года 8 мес. назад | Торрент скачан:1 раз
Скачать  

09-08-2017 05:34 Легко пришло, легко ушло Скачать торрент  

Легко пришло легко ушло / Easy Come Easy Go
Год выпуска: 1967
Страна: США
Жанр: Комедия, приключения, музыка
Продолжительность: 01:31:01
Перевод: Авторский одноголосый Алексей Михалёв

Режиссер: Джон Рич

Бюджет: $2 000 000
Премьера в мире: 22 марта 1967

rating

В ролях: Элвис Пресли, Доди Маршалл, Пэт Прист, Пэт Харингтон мл., Скип Уорд, Сэнди Кенион, Фрэнк МакХью, Эд Гриффит, Рид Морган, Мик Элей, Илэйн Бекетт, Шари Нимс, Дики Лернер, Роберт Изенберг, Эльза Ланчестер, Том Хэттен

Описание: Обезвреживая подводную мину, лейтенант Тэд Джексон случайно обнаруживает затонувший корабль. Движимый любопытством Тэд решает осмотреть его и находит на судне сундук, полный золотых монет.

Качество: DVDRip-AVC
Формат: MKV
Видео кодек: MPEG4
Аудио кодек: AC3
Видео: MPEG-4 AVC, 3000 Кбит/с, 720x572@1024x572, 25 кадров/сек
Аудио#1: Русский (AC3, 2 ch, 192 Кбит/с, 48 КГц)
Аудио#2: Английский (AC3, 6 ch, 448 Кбит/с, 48 КГц)
Релиз от:




raw [info]: 720x572p 64:45 @ 25/1 fps (cfr)
x264 [info]: using SAR=64/45
x264 [info]: using cpu capabilities: MMX2 SSE2Fast LZCNT
x264 [info]: profile High, level 4.1
x264 [info]: frame I:764 Avg QP:17.54 size: 60032
x264 [info]: frame P:29018 Avg QP:19.99 size: 28298
x264 [info]: frame B:106752 Avg QP:21.79 size: 11063
x264 [info]: consecutive B-frames: 1.4% 1.9% 9.7% 18.5% 8.0% 59.3% 0.9% 0.2% 0.1% 0.0% 0.0% 0.0% 0.0% 0.0% 0.0% 0.0% 0.0%
-----
Общее
Уникальный идентификатор : 195113344474144068025228368879381109666 (0x92C97698AE60633981231633C887DBA2)
Полное имя : D:\Relizes\Easy.Come.Easy.Go.1967.DVDRip-AVC.ExKinoRay.mkv
Формат : Matroska
Версия формата : Version 2
Размер файла : 2,32 Гбайт
Продолжительность : 1 ч. 31 м.
Общий поток : 3642 Кбит/сек
Дата кодирования : UTC 2017-08-09 03:03:54
Программа кодирования : mkvmerge v7.8.0 ('River Man') 32bit built on Apr 3 2015 12:11:22
Библиотека кодирования : libebml v1.3.1 + libmatroska v1.4.2

Видео
Идентификатор : 1
Формат : AVC
Формат/Информация : Advanced Video Codec
Профиль формата : High@L4.1
Параметр CABAC формата : Да
Параметр ReFrames формата : 14 кадров
Идентификатор кодека : V_MPEG4/ISO/AVC
Продолжительность : 1 ч. 31 м.
Битрейт : 3000 Кбит/сек
Ширина : 720 пикселей
Высота : 572 пикселя
Соотношение сторон : 16:9
Режим частоты кадров : Постоянный
Частота кадров : 25,000 кадров/сек
Цветовое пространство : YUV
Субдискретизация насыщенности : 4:2:0
Битовая глубина : 8 бит
Тип развёртки : Прогрессивная
Бит/(Пиксели*Кадры) : 0.291
Размер потока : 1,86 Гбайт (80%)
Библиотека кодирования : x264 core 148 r2638 7599210
Настройки программы : cabac=1 / ref=14 / deblock=1:-2:-2 / analyse=0x3:0x133 / me=umh / subme=10 / psy=1 / psy_rd=1.05:0.15 / mixed_ref=1 / me_range=32 / chroma_me=1 / trellis=2 / 8x8dct=1 / cqm=0 / deadzone=21,11 / fast_pskip=0 / chroma_qp_offset=-3 / threads=4 / lookahead_threads=1 / sliced_threads=0 / nr=0 / decimate=0 / interlaced=0 / bluray_compat=0 / constrained_intra=0 / bframes=16 / b_pyramid=2 / b_adapt=2 / b_bias=0 / direct=3 / weightb=1 / open_gop=0 / weightp=2 / keyint=250 / keyint_min=25 / scenecut=40 / intra_refresh=0 / rc=2pass / mbtree=0 / bitrate=3000 / ratetol=1.0 / qcomp=0.60 / qpmin=0 / qpmax=69 / qpstep=4 / cplxblur=20.0 / qblur=0.5 / ip_ratio=1.40 / pb_ratio=1.30 / aq=1:1.00
Язык : English
Default : Да
Forced : Нет
Цветовой диапазон : Limited
Основные цвета : BT.601 NTSC
Характеристики трансфера : BT.601
Коэффициенты матрицы : BT.601

Аудио #1
Идентификатор : 2
Формат : AC-3
Формат/Информация : Audio Coding 3
Расширение режима : CM (complete main)
Параметр Endianness формата : Big
Идентификатор кодека : A_AC3
Продолжительность : 1 ч. 31 м.
Вид битрейта : Постоянный
Битрейт : 192 Кбит/сек
Каналы : 2 канала
Расположение каналов : Front: L R
Частота : 48,0 КГц
Частота кадров : 31,250 кадров/сек (1536 spf)
Метод сжатия : С потерями
Размер потока : 125 Мбайт (5%)
Заголовок : Михалев
Язык : Russian
Default : Да
Forced : Нет

Аудио #2
Идентификатор : 3
Формат : AC-3
Формат/Информация : Audio Coding 3
Расширение режима : CM (complete main)
Параметр Endianness формата : Big
Идентификатор кодека : A_AC3
Продолжительность : 1 ч. 31 м.
Вид битрейта : Постоянный
Битрейт : 448 Кбит/сек
Каналы : 6 каналов
Расположение каналов : Front: L C R, Side: L R, LFE
Частота : 48,0 КГц
Частота кадров : 31,250 кадров/сек (1536 spf)
Метод сжатия : С потерями
Задержка видео : 9 мс.
Размер потока : 292 Мбайт (12%)
Язык : English
Default : Нет
Forced : Нет

piratbit.pw



Скачать Легко пришло, легко ушло через торрент http://s014.radikal.ru/i326/1708/08/ba0fdb9b2e4a.jpg Скачать фильм Легко пришло, легко ушло через торрент бесплантно в хорошем качестве Описание: Обезвреживая подводную мину, лейтенант Тэд Джексон случайно обнаруживает затонувший корабль. Движимый любопытством Тэд решает ... 5 10 1
Info! Золотая раздача, скачанное не засчитывается.
Торрент: Зарегистрирован [2017-08-09 05:34] · скачан: 1 раз
Статус: √ проверено
Размер: 2.32 GB
Как cкачать? Как скачать Легко пришло, легко ушло через торрент | UTorrent

28-11-2019 20:33  

Отключить всю рекламу на сайте

09-08-2017 05:42 Легко пришло, легко ушло Скачать торрент  

Топик был перенесен из форума Оформление раздач (Кино, Видео и ТВ) в форум Фильмы с авторской озвучкой


schultzpiratbit.pw



    Дорогой пользователь! Огромная просьба, поблагодарите релизера, оцените раздачу и оставьте свои комментарий, если Вы скачали Легко пришло, легко ушло через торрент бесплатно! Внесите свою лепту в развитие PiratBit!
    Комментировать посты могут только пользователи прошедшие не сложную регистрацию
    Показать сообщения:    

    Легко пришло, легко ушло через торрент
    Скачать бесплатно Легко пришло, легко ушло
    Легко пришло, легко ушло скачать торрент
    Легко пришло, легко ушло смотреть онлайн
    Cкачать фильм Легко пришло, легко ушло бесплатно
    Легко пришло, легко ушло скачать торрент в хорошем качестве
    Легко пришло, легко ушло смотреть онлайн бесплатно в хорошем качестве


    Вы не можете начинать темы
    Вы не можете отвечать на сообщения
    Вы не можете редактировать свои сообщения
    Вы не можете удалять свои сообщения
    Вы не можете голосовать в опросах
    Вы не можете прикреплять файлы к сообщениям
    Вы можете скачивать файлы