Ссылка на приватное зеркало нашего сайта всего за 1$. Внимание количество ограничено!!!

2 сезон

iTunes

iTunes

1

iTunes

iTunes

iTunes

WEBRip

iTunes

30
pack

Вам бонус

ВАЖНО

!!Акция!!

Alien_RageХит недели

RePack

Horizon Zero Dawn

ИГРА 18+

pack

RePack

jed

!!Акция!!

Alien_Rage

RePack

fifa19

RePack

Assassins Creed: Odyssey

RePack

NEED FOR SPEED™ PAYBACK

4 сезон

9 сезон

Бесстыжие 9 сезон

Все сериалы

все сериалы на PB.wtf

RePack

FAR CRY 5
  

Невеста (Святослав Подгаевский) [2017, ужасы, триллер, BDRip 720p] [GER Transfer] [Лицензия] - ExKinoRay piratbit.pw

Невеста через торрент piratbit.pw

Размер: 3.46 GB | Добавлен: 3 года 1 мес. назад | Торрент скачан:337 раз
Скачать  

28-07-2017 13:23 Невеста Скачать торрент  

Информация о фильме
Название: Невеста
Год выпуска: 2017
Жанр: Ужасы, триллер
Страна: Россия
Студия: ДЕСЯТЬ НОЛЬ ДЕВЯТЬ, Focus Plus Cinema, Planeta Inform
Продолжительность: 01:35:36
Перевод: Не требуется (русский) | Лицензия
Режиссер: Святослав Подгаевский
В ролях: Виктория Агалакова, Вячеслав Чепурченко, Александра Ребенок, Игорь Хрипунов, Анастасия Акатова, Виктор Соловьев, Мария Арнаут, Лада Чуровская, Евгений Коряковский, Татьяна Филатова

Описание: После свадьбы Настя уговаривает мужа взять её с собой к его родственникам, которые живут в маленьком, почти заброшенном городке. Но скоро начинает сожалеть о своей просьбе. Семья Вани хочет провести таинственный свадебный обряд по своим традициям, и Настю начинают пугать страшные сны и непонятные предчувствия. Попытка понять что происходит, приводит девушку к жуткой находке — шкатулке с фотографиями мертвых людей.

rating

Формат: MKV
Качество: BDRip 720p
Видео: MPEG-4 AVC, 1280x534 (2.40:1), 3039 Kbit/s, 23.976 fps, 0,185 bpp
Звук:
Аудио: 48 kHz, AC3, 5.1, 640 Kbps | RUS
Аудио: 48 kHz, DTS, 5.1, 1509 Kbps | RUS
x264 [info]: frame I:841 Avg QP:11.02 size:110235
x264 [info]: frame P:28839 Avg QP:13.86 size: 33713
x264 [info]: frame B:107860 Avg QP:15.91 size: 10305
x264 [info]: consecutive B-frames: 2.3% 2.4% 8.6% 12.6% 15.4% 36.0% 11.2% 9.6% 1.0% 0.4% 0.5%
________________________________________________________

General
Unique ID : 192043910175332631852912628212866747835 (0x907A4FCD2B66455595366A53F11C0DBB)
Complete name : D:\Bride.2017.O.BDRip.720p.ExKinoRay.mkv
Format : Matroska
Format version : Version 2
File size : 3.46 GiB
Duration : 1 h 35 min
Overall bit rate : 5 187 kb/s
Movie name : Невеста (2017) from ExKinoRay
Encoded date : UTC 2017-07-28 12:29:44
Writing application : mkvmerge v5.6.0 ('Kenya Kane') built on May 27 2012 16:44:04
Writing library : libebml v1.2.3 + libmatroska v1.3.0

Video
ID : 1
Format : AVC
Format/Info : Advanced Video Codec
Format profile : High@L4.1
Format settings, CABAC : Yes
Format settings, ReFrames : 12 frames
Codec ID : V_MPEG4/ISO/AVC
Duration : 1 h 35 min
Bit rate : 3 039 kb/s
Width : 1 280 pixels
Height : 534 pixels
Display aspect ratio : 2.40:1
Frame rate mode : Constant
Frame rate : 23.976 (24000/1001) FPS
Color space : YUV
Chroma subsampling : 4:2:0
Bit depth : 8 bits
Scan type : Progressive
Bits/(Pixel*Frame) : 0.185
Stream size : 1.96 GiB (57%)
Title : Enigma
Writing library : x264 core 148 r2638 7599210
Encoding settings : cabac=1 / ref=12 / deblock=1:-3:-3 / analyse=0x3:0x113 / me=umh / subme=11 / psy=1 / psy_rd=1.00:0.05 / mixed_ref=1 / me_range=32 / chroma_me=1 / trellis=2 / 8x8dct=1 / cqm=0 / deadzone=21,11 / fast_pskip=1 / chroma_qp_offset=-3 / threads=12 / lookahead_threads=3 / sliced_threads=0 / nr=0 / decimate=1 / interlaced=0 / bluray_compat=0 / constrained_intra=0 / bframes=10 / b_pyramid=2 / b_adapt=2 / b_bias=0 / direct=3 / weightb=1 / open_gop=0 / weightp=2 / keyint=240 / keyint_min=23 / scenecut=40 / intra_refresh=0 / rc_lookahead=40 / rc=2pass / mbtree=0 / bitrate=3039 / ratetol=1.0 / qcomp=0.65 / qpmin=0 / qpmax=51 / qpstep=4 / cplxblur=20.0 / qblur=0.5 / vbv_maxrate=50000 / vbv_bufsize=62500 / nal_hrd=none / filler=0 / ip_ratio=1.40 / pb_ratio=1.30 / aq=1:1.00
Default : Yes
Forced : No
Color range : Limited
Color primaries : BT.709
Transfer characteristics : BT.709
Matrix coefficients : BT.709
Statistics Tags Issue : mkvmerge v8.5.2 ('Crosses') 32bit 2017-07-28 07:16:37 / mkvmerge v5.6.0 ('Kenya Kane') built on May 27 2012 16:44:04 2017-07-28 12:29:44
FromStats_BitRate : 3035247
FromStats_Duration : 01:35:36.564000000
FromStats_FrameCount : 137540
FromStats_StreamSize : 2176486129

Audio #1
ID : 2
Format : AC-3
Format/Info : Audio Coding 3
Mode extension : CM (complete main)
Format settings, Endianness : Big
Codec ID : A_AC3
Duration : 1 h 35 min
Bit rate mode : Constant
Bit rate : 640 kb/s
Channel(s) : 6 channels
Channel positions : Front: L C R, Side: L R, LFE
Sampling rate : 48.0 kHz
Frame rate : 31.250 FPS (1536 spf)
Compression mode : Lossy
Stream size : 438 MiB (12%)
Title : AC3 640 - Лицензия
Language : Russian
Default : Yes
Forced : No

Audio #2
ID : 3
Format : DTS
Format/Info : Digital Theater Systems
Mode : 16
Format settings, Endianness : Big
Codec ID : A_DTS
Duration : 1 h 35 min
Bit rate mode : Constant
Bit rate : 1 509 kb/s
Channel(s) : 6 channels
Channel positions : Front: L C R, Side: L R, LFE
Sampling rate : 48.0 kHz
Frame rate : 93.750 FPS (512 spf)
Bit depth : 16 bits
Compression mode : Lossy
Stream size : 1.01 GiB (29%)
Title : DTS 1509 - Лицензия
Language : Russian
Default : No
Forced : No

Menu
00:00:00.000 : :Chapter 01
00:09:37.285 : :Chapter 02
00:16:03.754 : :Chapter 03
00:23:36.957 : :Chapter 04
00:30:27.659 : :Chapter 05
00:38:54.790 : :Chapter 06
00:46:40.255 : :Chapter 07
00:53:40.842 : :Chapter 08
01:01:15.296 : :Chapter 09
01:11:00.464 : :Chapter 10
01:19:08.201 : :Chapter 11
01:27:11.684 : :Chapter 12
01:35:36.063 : :Chapter 13
Релиз от:

Автор релиза: piratbit.pw



Скачать Невеста через торрент http://i90.fastpic.ru/big/2017/0218/ba/f33ef68c7f0fdd7de86618ab37991eba.jpg Скачать фильм Невеста через торрент бесплантно в хорошем качестве Описание: После свадьбы Настя уговаривает мужа взять её с собой к его родственникам, которые живут в маленьком, почти заброшенном городке. ... 8.4 10 9
Info! Золотая раздача, скачанное не засчитывается.
Торрент: Зарегистрирован [2017-07-28 13:23] · скачан: 337 раз
Статус: √ проверено
Размер: 3.46 GB
Как cкачать? Как скачать Невеста через торрент | qTorrent

% Раздел Тема Автор DL S | L
Индийское кино [ 2.68 GB ] Невеста Бадринатха / Badrinath Ki [2017 HDRip-AVC] MVO - ExKinoRay Enigma2010 Скачать
1 | 0

28-11-2019 20:33  

Отключить всю рекламу на сайте

28-07-2017 19:34 Невеста Скачать торрент  

говно! САМЫЙ НОРМАЛЬНЫЙ КАДР ИЗ ВСЕГО ФИЛЬМА КОГДА ДЕВЧЕНКА ХОДИЛА В ТРУСАХ ПО КУХНЕpiratbit.pw



31-07-2017 16:53 Невеста Скачать торрент  

в принцапе посмотреть можно, постановка режиссуры норм( и Жене тоже понравился). так что сами думайте.piratbit.pw



    Дорогой пользователь! Огромная просьба, поблагодарите релизера, оцените раздачу и оставьте свои комментарий, если Вы скачали Невеста через торрент бесплатно! Внесите свою лепту в развитие PiratBit!
    Комментировать посты могут только пользователи прошедшие не сложную регистрацию
    Показать сообщения:    

    Невеста через торрент
    Скачать бесплатно Невеста
    Невеста скачать торрент
    Невеста смотреть онлайн
    Cкачать фильм Невеста бесплатно
    Невеста скачать торрент в хорошем качестве
    Невеста смотреть онлайн бесплатно в хорошем качестве


    Вы не можете начинать темы
    Вы не можете отвечать на сообщения
    Вы не можете редактировать свои сообщения
    Вы не можете удалять свои сообщения
    Вы не можете голосовать в опросах
    Вы не можете прикреплять файлы к сообщениям
    Вы можете скачивать файлы