Marvel's Avengers Deluxe Edition (супер цена) 159р. Внимание количество ограничено!!!

2 сезон

iTunes

iTunes

1

iTunes

iTunes

iTunes

WEBRip

iTunes

30
pack

Новость дня

ВАЖНО

!!Акция!!

Alien_RageХит недели

RePack

Horizon Zero Dawn

ИГРА 18+

pack

RePack

jed

!!Акция!!

Alien_Rage

RePack

fifa19

RePack

Assassins Creed: Odyssey

RePack

NEED FOR SPEED™ PAYBACK

4 сезон

9 сезон

Бесстыжие 9 сезон

Все сериалы

все сериалы на PB.wtf

RePack

FAR CRY 5
  

Викинг (Андрей Кравчук ) [2016, история, драма, BDRip 1080p] [UNRATED] [Лицензия] piratbit.pw

Викинг через торрент piratbit.pw

Размер: 13.71 GB | Добавлен: 3 года 1 мес. назад | Торрент скачан:177 раз
Скачать  

19-07-2017 18:47 Викинг Скачать торрент  

Викинг

Год выпуска: 2016
Страна: Россия
Жанр: история, драма

Продолжительность: 02:22:40
Перевод: Не требуется [Русский]
Режиссер: Андрей Кравчук
В ролях: Данила Козловский (Владимир), Светлана Ходченкова (Ирина), Максим Суханов (Свенельд), Игорь Петренко (Варяжко), Андрей Смоляков (Роговолд), Владимир Епифанцев (Федор), Александра Бортич (Рогнеда), Кирилл Плетнёв (Олег), Александр Устюгов (Ярополк), Ростислав Бершауэр (Блуд), Павел Делонг (Анастас), Алексей Демидов (Самоха)
Описание:
Раннее Средневековье. Время тяжелых мечей и темных законов крови. Правящий род в раздоре. Вина за случайную смерть брата легла на Великого Князя. По закону мстить ему должен младший брат - бастард. За отказ убивать он заплатит всем, что у него было, потому что «для мира нужно больше мечей, чем для войны».

Качество: BDRip 1080p
Формат: MKV
Видео: AVC, 1920x800 (2.40:1), 11672 kbps, 23,976 fps, 0,317 bpp
Аудио №1: русский / AC3 / 5.1 / 48 kHz / 640 kbps /
Аудио №2: русский / DTS / 5.1 / 48 kHz / 1509 kbps / 24 bit
Навигация по главам: есть

General
Unique ID Viking.2016.x264.BDRip.1080p.mkv
Format : Matroska
Format version : Version 2
File size : 13.7 GiB
Duration : 2 h 22 min
Overall bit rate : 13.8 Mb/s
Movie name : Викинг.2016.
Encoded date : UTC 2017-04-27 03:56:18
Writing application : mkvmerge v5.6.0 ('Kenya Kane') built on May 27 2012 16:44:04
Writing library : libebml v1.2.3 + libmatroska v1.3.0
Cover : Yes
Attachments : Cover - Viking.png

Video
ID : 1
Format : AVC
Format/Info : Advanced Video Codec
Format profile : High@L4.1
Format settings, CABAC : Yes
Format settings, ReFrames : 5 frames
Codec ID : V_MPEG4/ISO/AVC
Duration : 2 h 22 min
Bit rate : 11.7 Mb/s
Width : 1 920 pixels
Height : 800 pixels
Display aspect ratio : 2.40:1
Frame rate mode : Constant
Frame rate : 23.976 (24000/1001) FPS
Color space : YUV
Chroma subsampling : 4:2:0
Bit depth : 8 bits
Scan type : Progressive
Bits/(Pixel*Frame) : 0.317
Stream size : 11.3 GiB (82%)
Writing library : x264 core 146 r2538 121396c
Encoding settings : cabac=1 / ref=5 / deblock=1:-3:-3 / analyse=0x3:0x133 / me=umh / subme=11 / psy=1 / psy_rd=1.02:0.06 / mixed_ref=1 / me_range=48 / chroma_me=1 / trellis=2 / 8x8dct=1 / cqm=0 / deadzone=21,11 / fast_pskip=0 / chroma_qp_offset=-3 / threads=12 / lookahead_threads=3 / sliced_threads=0 / nr=0 / decimate=0 / interlaced=0 / bluray_compat=0 / constrained_intra=0 / bframes=10 / b_pyramid=2 / b_adapt=2 / b_bias=0 / direct=3 / weightb=1 / open_gop=0 / weightp=2 / keyint=240 / keyint_min=23 / scenecut=40 / intra_refresh=0 / rc_lookahead=40 / rc=2pass / mbtree=0 / bitrate=11672 / ratetol=1.0 / qcomp=0.60 / qpmin=0 / qpmax=69 / qpstep=4 / cplxblur=20.0 / qblur=0.5 / vbv_maxrate=50000 / vbv_bufsize=62500 / nal_hrd=none / filler=0 / ip_ratio=1.40 / pb_ratio=1.30 / aq=1:1.00
Language : Russian
Default : Yes
Forced : No

Audio #1
ID : 2
Format : AC-3
Format/Info : Audio Coding 3
Mode extension : CM (complete main)
Format settings, Endianness : Big
Codec ID : A_AC3
Duration : 2 h 22 min
Bit rate mode : Constant
Bit rate : 640 kb/s
Channel(s) : 6 channels
Channel positions : Front: L C R, Side: L R, LFE
Sampling rate : 48.0 kHz
Frame rate : 31.250 FPS (1536 spf)
Compression mode : Lossy
Stream size : 653 MiB (5%)
Title : Лицензия
Language : Russian
Default : Yes
Forced : No

Audio #2
ID : 3
Format : DTS
Format/Info : Digital Theater Systems
Mode : 16
Format settings, Endianness : Big
Codec ID : A_DTS
Duration : 2 h 22 min
Bit rate mode : Constant
Bit rate : 1 509 kb/s
Channel(s) : 6 channels
Channel positions : Front: L C R, Side: L R, LFE
Sampling rate : 48.0 kHz
Frame rate : 93.750 FPS (512 spf)
Bit depth : 24 bits
Compression mode : Lossy
Stream size : 1.50 GiB (11%)
Title : Лицензия
Language : Russian
Default : No
Forced : No

Menu
00:00:00.000 : ru:Chapter 01
00:14:33.998 : ru:Chapter 02
00:25:23.980 : ru:Chapter 03
00:37:35.211 : ru:Chapter 04
00:48:08.218 : ru:Chapter 05
00:59:10.046 : ru:Chapter 06
01:08:41.367 : ru:Chapter 07
01:19:54.831 : ru:Chapter 08
01:31:57.720 : ru:Chapter 09
01:45:39.583 : ru:Chapter 10
01:58:02.742 : ru:Chapter 11
02:13:05.102 : ru:Chapter 12
02:22:13.483 : ru:Chapter 13
piratbit.pw



Скачать Викинг через торрент http://i3.imageban.ru/out/2017/07/19/90f94698d10896c35d00e36a54c2174b.jpg Скачать фильм Викинг через торрент бесплантно в хорошем качестве Описание: Раннее Средневековье. Время тяжелых мечей и темных законов крови. Правящий род в раздоре. Вина за случайную смерть брата легла на ... 3.8 10 6
Торрент: Зарегистрирован [2017-07-19 18:47] · скачан: 177 раз
Статус: √ проверено
Размер: 13.71 GB
Как cкачать? Как скачать Викинг через торрент | qTorrent

% Раздел Тема Автор DL S | L
Наши фильмы (Blu-ray, BD-Remux, HDDVD) [ 35.46 GB ] Викинг [2016 история Blu-ray BD GER] / Расширенная версия schultz Скачать
1 | 0
Зарубежные сериалы [ 42.7 GB ] Викинги / Vikings / Сезон: 5 / Серии: 1-20 из 20 [2017 военный история WEB-DL 1080p] MVO [Lostfilm] bober100 Скачать
2 | 3
Зарубежные сериалы [ 10.69 GB ] Викинги / Vikings / Сезон: 5 / Серии: 1-20 из 20 [2017 военный история WEB-DLRip] MVO [AlexFilm] bober100 Скачать
1 | 0
Зарубежные сериалы [ 21.33 GB ] Викинги / Vikings / Сезон: 5 / Серии: 1-20 из 20 [2017 военный история WEB-DL 720p] MVO [AlexFilm] bober100 Скачать
1 | 0
Зарубежные сериалы [ 44.61 GB ] Викинги / Vikings / Сезон: 5 / Серии: 1-20 из 20 [2017 военный история WEB-DL 1080p] MVO [AlexFilm] bober100 Скачать
1 | 0
Зарубежные сериалы [ 5.2 GB ] Викинги / Vikings / Сезон: 5 / Серии 1-10 из 20 [2017 Ирландия военный WEB-DLRip] MVO [Lostfilm] GEKADOL Скачать
1 | 0
Зарубежные сериалы [ 23.89 GB ] Викинги / Vikings / Сезон: 5 / Серии: 1-20 из 20 [2017 военный история WEB-DL 720p] MVO [Amedia] bober100 Скачать
1 | 0

28-11-2019 20:33  

Отключить всю рекламу на сайте

    Дорогой пользователь! Огромная просьба, поблагодарите релизера, оцените раздачу и оставьте свои комментарий, если Вы скачали Викинг через торрент бесплатно! Внесите свою лепту в развитие PiratBit!
    Комментировать посты могут только пользователи прошедшие не сложную регистрацию
    Показать сообщения:    

    Викинг через торрент
    Скачать бесплатно Викинг
    Викинг скачать торрент
    Викинг смотреть онлайн
    Cкачать фильм Викинг бесплатно
    Викинг скачать торрент в хорошем качестве
    Викинг смотреть онлайн бесплатно в хорошем качестве


    Вы не можете начинать темы
    Вы не можете отвечать на сообщения
    Вы не можете редактировать свои сообщения
    Вы не можете удалять свои сообщения
    Вы не можете голосовать в опросах
    Вы не можете прикреплять файлы к сообщениям
    Вы можете скачивать файлы