Marvel's Avengers Deluxe Edition (супер цена) 159р. Внимание количество ограничено!!!

2 сезон

iTunes

iTunes

1

iTunes

iTunes

iTunes

WEBRip

iTunes

30
pack

Новость дня

ВАЖНО

!!Акция!!

Alien_RageХит недели

RePack

Horizon Zero Dawn

ИГРА 18+

pack

RePack

jed

!!Акция!!

Alien_Rage

RePack

fifa19

RePack

Assassins Creed: Odyssey

RePack

NEED FOR SPEED™ PAYBACK

4 сезон

9 сезон

Бесстыжие 9 сезон

Все сериалы

все сериалы на PB.wtf

RePack

FAR CRY 5
  

Любовь с ограничениями (Дмитрий Тюрин ) [2016, комедия, мелодрама, BDRip 1080p] [Лицензия] piratbit.pw

Любовь с ограничениями через торрент piratbit.pw

Размер: 6.78 GB | Добавлен: 3 года 1 мес. назад | Торрент скачан:157 раз
Скачать  

19-07-2017 17:58 Любовь с ограничениями Скачать торрент  

Любовь с ограничениями

Год выпуска: 2016
Страна: Россия
Жанр: комедия, мелодрама

Продолжительность: 01:42:38
Перевод: Не требуется [Русский] [Лицензия]
Режиссер: Дмитрий Тюрин
В ролях: Павел Прилучный (Миша), Анна Старшенбаум, Илья Глинников (Рома), Алексей Чадов, Алексей Воробьев, Кирилл Плетнёв, Сергей Кутергин, Тимур Боканча (Толик), Ксения Иванова, Павел Шевандо (сотрудник), Наталья Бардо (Таня), Анастасия Чепелюк (девушка-ассистент)
Описание:
Однажды самый обычный парень Миша узнает об указе Президента России, по которому в крупных компаниях должно работать два процента людей с ограниченными возможностями. И тут в его «светлую» голову приходит идея, как воплотить свою давнюю мечту о богатой и беззаботной жизни. Не долго думая, Миша получает фиктивные медицинские документы, садится в коляску и едет на собеседование - и не куда-нибудь, а в крупную корпорацию «Нашгаз». По счастливой случайности там как раз не хватало одного человека до той самой квоты. Жизнь удалась! Престижная работа, большая зарплата, крутая машина и только одно ограничение: Миша постоянно должен находиться в инвалидном кресле...

Качество: BDRip 1080p
Формат: MKV
Видео: AVC, 1920x804 (2.40:1), 7500 kbps, 24 fps, 0,202 bpp
Аудио №1: русский / AC3 / 5.1 / 48 kHz / 448 kbps /
Аудио №2: русский / DTS / 5.1 / 48 kHz / 1509 kbps / 24 bit
Навигация по главам: есть

General
Unique ID
Complete name Любовь.с.ограничениями.1080p.mkv
Format : Matroska
Format version : Version 2
File size : 6.78 GiB
Duration : 1 h 42 min
Overall bit rate : 9 455 kb/s
Movie name : Любовь с ограничениями
Encoded date : UTC 2017-06-24 22:38:56
Writing application : mkvmerge v10.0.0 ('To Drown In You') 64bit
Writing library : libebml v1.3.4 + libmatroska v1.4.5
Attachments : Лог кодирования.log

Video
ID : 1
Format : AVC
Format/Info : Advanced Video Codec
Format profile : High@L4.1
Format settings, CABAC : Yes
Format settings, ReFrames : 5 frames
Codec ID : V_MPEG4/ISO/AVC
Duration : 1 h 42 min
Bit rate : 7 500 kb/s
Width : 1 920 pixels
Height : 804 pixels
Display aspect ratio : 2.40:1
Frame rate mode : Constant
Frame rate : 24.000 FPS
Color space : YUV
Chroma subsampling : 4:2:0
Bit depth : 8 bits
Scan type : Progressive
Bits/(Pixel*Frame) : 0.202
Stream size : 5.24 GiB (77%)
Title : Любовь с ограничениями
Writing library : x264 core 150 r2833 df79067
Encoding settings : cabac=1 / ref=5 / deblock=1:-1:-1 / analyse=0x3:0x133 / me=umh / subme=11 / psy=1 / psy_rd=1.00:0.15 / mixed_ref=1 / me_range=64 / chroma_me=1 / trellis=2 / 8x8dct=1 / cqm=0 / deadzone=21,11 / fast_pskip=0 / chroma_qp_offset=-3 / threads=6 / lookahead_threads=1 / sliced_threads=0 / nr=0 / decimate=0 / interlaced=0 / bluray_compat=0 / constrained_intra=0 / bframes=16 / b_pyramid=2 / b_adapt=2 / b_bias=0 / direct=3 / weightb=1 / open_gop=0 / weightp=2 / keyint=240 / keyint_min=24 / scenecut=40 / intra_refresh=0 / rc_lookahead=60 / rc=2pass / mbtree=0 / bitrate=7500 / ratetol=1.0 / qcomp=0.60 / qpmin=0 / qpmax=69 / qpstep=4 / cplxblur=20.0 / qblur=0.5 / vbv_maxrate=50000 / vbv_bufsize=62500 / nal_hrd=none / filler=0 / ip_ratio=1.40 / pb_ratio=1.30 / aq=1:1.00
Language : Russian
Default : Yes
Forced : No

Audio #1
ID : 2
Format : AC-3
Format/Info : Audio Coding 3
Mode extension : CM (complete main)
Format settings, Endianness : Big
Codec ID : A_AC3
Duration : 1 h 42 min
Bit rate mode : Constant
Bit rate : 448 kb/s
Channel(s) : 6 channels
Channel positions : Front: L C R, Side: L R, LFE
Sampling rate : 48.0 kHz
Frame rate : 31.250 FPS (1536 spf)
Compression mode : Lossy
Stream size : 329 MiB (5%)
Title : Оригинал (AC-3, Постоянный, 448 Кбит/сек, 6 каналов, 48,0 КГц, 16 бит)
Language : Russian
Default : Yes
Forced : No

Audio #2
ID : 3
Format : DTS
Format/Info : Digital Theater Systems
Mode : 16
Format settings, Endianness : Big
Codec ID : A_DTS
Duration : 1 h 42 min
Bit rate mode : Constant
Bit rate : 1 509 kb/s
Channel(s) : 6 channels
Channel positions : Front: L C R, Side: L R, LFE
Sampling rate : 48.0 kHz
Frame rate : 93.750 FPS (512 spf)
Bit depth : 24 bits
Compression mode : Lossy
Stream size : 1.08 GiB (16%)
Title : Оригинал (DTS, Постоянный, 1509 Кбит/сек, 6 каналов, 48,0 КГц, 24 бит)
Language : Russian
Default : No
Forced : No

Menu
00:00:00.000 : en:00:00:00.000
00:02:32.250 : en:00:02:32.250
00:13:15.792 : en:00:13:15.792
00:27:14.292 : en:00:27:14.292
00:37:00.292 : en:00:37:00.292
00:48:26.292 : en:00:48:26.292
01:02:44.833 : en:01:02:44.833
01:14:13.542 : en:01:14:13.542
01:28:06.583 : en:01:28:06.583
piratbit.pw



Скачать Любовь с ограничениями через торрент http://i3.imageban.ru/out/2017/07/19/394bea2eb3a898a735c9eb8ee2828d37.jpg Скачать фильм Любовь с ограничениями через торрент бесплантно в хорошем качестве Описание: Однажды самый обычный парень Миша узнает об указе Президента России, по которому в крупных компаниях должно работать два процента ... 8.5 10 6
Торрент: Зарегистрирован [2017-07-19 17:58] · скачан: 157 раз
Статус: √ проверено
Размер: 6.78 GB
Как cкачать? Как скачать Любовь с ограничениями через торрент | qTorrent

% Раздел Тема Автор DL S | L
Наши новые фильмы 2016 [ 1.46 GB ] Любовь с ограничениями [2016 BDRip] [Русский] [] Twi7ter Скачать
2 | 0
Наши новые фильмы 2016 [ 1.45 GB ] Любовь с ограничениями [2016 BDRip] [] bober100 Скачать
1 | 0
Наши новые фильмы 2016 [ 1.68 GB ] Любовь с ограничениями [2016 BDRip-AVC] - ExKinoRay Enigma2010 Скачать
1 | 0
Наши фильмы (Blu-ray, BD-Remux, HDDVD) [ 21.49 GB ] Любовь с ограничениями [2016 Blu-ray 1080p] [] bober100 Скачать
1 | 0
Наши новые фильмы 2016 [ 1.38 GB ] Любовь с ограничениями [2016 Россия WEB-DLRip-AVC от sokol_ok] sokol_ok Скачать
2 | 0
Наши новые фильмы 2016 [ 746 MB ] Любовь с ограничениями [2016 WEB-DLRip ] oleg8 Скачать
1 | 0
Наши новые фильмы 2016 [ 1.43 GB ] Любовь с ограничениями [2016 WEB-DLRip-AVC] - ExKinoRay Enigma2010 Скачать
1 | 0

28-11-2019 20:33  

Отключить всю рекламу на сайте

    Дорогой пользователь! Огромная просьба, поблагодарите релизера, оцените раздачу и оставьте свои комментарий, если Вы скачали Любовь с ограничениями через торрент бесплатно! Внесите свою лепту в развитие PiratBit!
    Комментировать посты могут только пользователи прошедшие не сложную регистрацию
    Показать сообщения:    

    Любовь с ограничениями через торрент
    Скачать бесплатно Любовь с ограничениями
    Любовь с ограничениями скачать торрент
    Любовь с ограничениями смотреть онлайн
    Cкачать фильм Любовь с ограничениями бесплатно
    Любовь с ограничениями скачать торрент в хорошем качестве
    Любовь с ограничениями смотреть онлайн бесплатно в хорошем качестве


    Вы не можете начинать темы
    Вы не можете отвечать на сообщения
    Вы не можете редактировать свои сообщения
    Вы не можете удалять свои сообщения
    Вы не можете голосовать в опросах
    Вы не можете прикреплять файлы к сообщениям
    Вы можете скачивать файлы