Ссылка на приватное зеркало всего за 1$. Внимание количество ограничено!!!

iTunes

iTunes

iTunes

1

iTunes

iTunes

iTunes

iTunes

iTunes

30
pack

$ от Little Big

ВАЖНО

!!Акция!!

Alien_RageХит недели

RePack

Resident Evil 21

ИГРА 18+

pack

RePack

jed

!!Акция!!

Alien_Rage

RePack

fifa19

RePack

Assassins Creed: Odyssey

RePack

NEED FOR SPEED™ PAYBACK

4 сезон

9 сезон

Бесстыжие 9 сезон

Все сериалы

все сериалы на PB.wtf

RePack

FAR CRY 5
  

Королева скота из Монтаны / Cattle Queen of Montana (Аллан Дуон) [1954 г., Вестерн, Любительский (одноголосый)] DVDRip-AVC от ExKinoRay piratbit.pw

Королева скота из Монтаны через торрент piratbit.pw

Размер: 2.37 GB | Добавлен: 2 года 11 мес. назад | Торрент скачан:7 раз
Скачать  

12-07-2017 02:37 Королева скота из Монтаны Скачать торрент  

Королева скота из Монтаны / Cattle Queen of Montana
Год выпуска: 1954
Страна: США
Жанр: Вестерн
Продолжительность: 01:24:34
Перевод: Любительский (одноголосый)

Режиссер: Аллан Дуон

Премьера в мире: 18 ноября 1954

rating

В ролях: Барбара Стэнвик, Рональд Рейган, Джин Эванс, Лэнс Фуллер, Энтони Карузо, Джек Илэм, Ивет Дугай, Моррис Анкрум, Чабби Джонсон, Майрон Хили

Описание: XIX век, Дикий Запад. Молодая привлекательная девушка Сьерра-Невада Джонс и её отец перегоняют стадо из Техаса в свои новые владения в штате
Монтана. Об этом они мечтали очень долго и сейчас наслаждаются спокойствием и красотой новых мест. Внезапно они подвергаются нападению разбойника-индейца Начакоа и его людей из племени черноногих.

Качество: DVDRip-AVC
Формат: MKV
Видео: MPEG-4, 3500 Кбит/с, 704x568p@750x568, 25 кадров/сек
Аудио#1: Русский (AC3, 1 ch, 256 бит/с, 48 КГц)
Аудио#2: Английский (AC3, 1 ch, 256 бит/с, 48 КГц)
Релиз от:

raw [info]: 704x568p 16:15 @ 25/1 fps (cfr)
x264 [info]: using SAR=16/15
x264 [info]: using cpu capabilities: MMX2 SSE2Fast LZCNT
x264 [info]: profile High, level 4.1
x264 [info]: frame I:798 Avg QP:18.91 size: 75725
x264 [info]: frame P:25553 Avg QP:21.21 size: 35743
x264 [info]: frame B:100505 Avg QP:23.26 size: 12401
x264 [info]: consecutive B-frames: 1.6% 1.5% 5.3% 13.6% 10.0% 65.4% 2.3% 0.2% 0.1% 0.0% 0.0% 0.0% 0.0% 0.0% 0.0% 0.0% 0.0%
-----
Общее
Уникальный идентификатор : 248688312513572634997041027829371127935 (0xBB17A0753CCBCA2DBC7D3D2AD046487F)
Полное имя : E:\Cattle.Queen.1954.DVDRip-AVC.ExKinoRay .mkv
Формат : Matroska
Версия формата : Version 2
Размер файла : 2,37 Гбайт
Продолжительность : 1 ч. 24 м.
Общий поток : 4014 Кбит/сек
Дата кодирования : UTC 2017-07-11 23:56:47
Программа кодирования : mkvmerge v7.8.0 ('River Man') 32bit built on Apr 3 2015 12:11:22
Библиотека кодирования : libebml v1.3.1 + libmatroska v1.4.2

Видео
Идентификатор : 1
Формат : AVC
Формат/Информация : Advanced Video Codec
Профиль формата : High@L4.1
Параметр CABAC формата : Да
Параметр ReFrames формата : 14 кадров
Идентификатор кодека : V_MPEG4/ISO/AVC
Продолжительность : 1 ч. 24 м.
Битрейт : 3500 Кбит/сек
Ширина : 704 пикселя
Высота : 568 пикселей
Соотношение сторон : 4:3
Соотношение сторон в оригинале : 4:3
Режим частоты кадров : Постоянный
Частота кадров : 25,000 кадров/сек
Цветовое пространство : YUV
Субдискретизация насыщенности : 4:2:0
Битовая глубина : 8 бит
Тип развёртки : Прогрессивная
Бит/(Пиксели*Кадры) : 0.350
Размер потока : 2,02 Гбайт (85%)
Библиотека кодирования : x264 core 148 r2638 7599210
Настройки программы : cabac=1 / ref=14 / deblock=1:-2:-2 / analyse=0x3:0x133 / me=umh / subme=10 / psy=1 / psy_rd=1.05:0.15 / mixed_ref=1 / me_range=32 / chroma_me=1 / trellis=2 / 8x8dct=1 / cqm=0 / deadzone=21,11 / fast_pskip=0 / chroma_qp_offset=-3 / threads=4 / lookahead_threads=1 / sliced_threads=0 / nr=0 / decimate=0 / interlaced=0 / bluray_compat=0 / constrained_intra=0 / bframes=16 / b_pyramid=2 / b_adapt=2 / b_bias=0 / direct=3 / weightb=1 / open_gop=0 / weightp=2 / keyint=250 / keyint_min=25 / scenecut=40 / intra_refresh=0 / rc=2pass / mbtree=0 / bitrate=3500 / ratetol=1.0 / qcomp=0.60 / qpmin=0 / qpmax=69 / qpstep=4 / cplxblur=20.0 / qblur=0.5 / ip_ratio=1.40 / pb_ratio=1.30 / aq=1:1.00
Язык : English
Default : Да
Forced : Нет
Цветовой диапазон : Limited
Основные цвета : BT.601 NTSC
Характеристики трансфера : BT.601
Коэффициенты матрицы : BT.601

Аудио #1
Идентификатор : 2
Формат : AC-3
Формат/Информация : Audio Coding 3
Расширение режима : CM (complete main)
Параметр Endianness формата : Big
Идентификатор кодека : A_AC3
Продолжительность : 1 ч. 24 м.
Вид битрейта : Постоянный
Битрейт : 256 Кбит/сек
Каналы : 1 канал
Расположение каналов : Front: C
Частота : 48,0 КГц
Частота кадров : 31,250 кадров/сек (1536 spf)
Метод сжатия : С потерями
Размер потока : 155 Мбайт (6%)
Язык : Russian
Default : Да
Forced : Нет

Аудио #2
Идентификатор : 3
Формат : AC-3
Формат/Информация : Audio Coding 3
Расширение режима : CM (complete main)
Параметр Endianness формата : Big
Идентификатор кодека : A_AC3
Продолжительность : 1 ч. 24 м.
Вид битрейта : Постоянный
Битрейт : 256 Кбит/сек
Каналы : 1 канал
Расположение каналов : Front: C
Частота : 48,0 КГц
Частота кадров : 31,250 кадров/сек (1536 spf)
Метод сжатия : С потерями
Размер потока : 155 Мбайт (6%)
Язык : English
Default : Нет
Forced : Нет

piratbit.pw



Скачать Королева скота из Монтаны через торрент http://s015.radikal.ru/i333/1707/cc/a68b427ce777.jpg Скачать фильм Королева скота из Монтаны через торрент бесплантно в хорошем качестве Описание: XIX век, Дикий Запад. Молодая привлекательная девушка Сьерра-Невада Джонс и её отец перегоняют стадо из Техаса в свои новые ... 5 10 1
Info! Золотая раздача, скачанное не засчитывается.
Торрент: Зарегистрирован [2017-07-12 02:37] · скачан: 7 раз
Статус: √ проверено
Размер: 2.37 GB
Как cкачать? Как скачать Королева скота из Монтаны через торрент | qTorrent

28-11-2019 20:33  

Отключить всю рекламу на сайте

12-07-2017 03:31 Королева скота из Монтаны Скачать торрент  

Топик был перенесен из форума Оформление раздач (Кино, Видео и ТВ) в форум Классика зарубежного кино


Enigma2010piratbit.pw



    Дорогой пользователь! Огромная просьба, поблагодарите релизера, оцените раздачу и оставьте свои комментарий, если Вы скачали Королева скота из Монтаны через торрент бесплатно! Внесите свою лепту в развитие PiratBit!
    Комментировать посты могут только пользователи прошедшие не сложную регистрацию
    Показать сообщения:    

    Королева скота из Монтаны через торрент
    Скачать бесплатно Королева скота из Монтаны
    Королева скота из Монтаны скачать торрент
    Королева скота из Монтаны смотреть онлайн
    Cкачать фильм Королева скота из Монтаны бесплатно
    Королева скота из Монтаны скачать торрент в хорошем качестве
    Королева скота из Монтаны смотреть онлайн бесплатно в хорошем качестве


    Вы не можете начинать темы
    Вы не можете отвечать на сообщения
    Вы не можете редактировать свои сообщения
    Вы не можете удалять свои сообщения
    Вы не можете голосовать в опросах
    Вы не можете прикреплять файлы к сообщениям
    Вы можете скачивать файлы