1 сезон

1 сезон

iTunes

1

КиноПоиск HD

Кинопоиск HD

iTunes

13

1 сезон

RePack

30

Новинка

ВАЖНО

ИГРА 18+

pack

RePack

MK11
pack

Легкие деньги

RePack

jed

RePack

fifa19

RePack

RDR2

RePack

NEED FOR SPEED™ PAYBACK

4 сезон

9 сезон

Бесстыжие 9 сезон

Все сериалы

все сериалы на PB.wtf

RePack

FAR CRY 5
  
Magnet ссылка

Существо из бездны / The Creature Below (Стюарт Спарк) [2016, ужасы, фантастика, BDRip 1080p] AVO+VO piratbit.pw

Существо из бездны через торрент piratbit.pw

Размер: 7.32 GB | Добавлен: 3 года 9 мес. назад | Торрент скачан:15 раз
Скачать  

04-07-2017 19:13 Существо из бездны Скачать торрент  

Существо из бездны / The Creature Below
Год выпуска: 2016
Страна: Великобритания
Жанр: ужасы, фантастика
Продолжительность: 01:23:07

Перевод:

Авторский (одноголосый) | Антон Карповский +
Любительский (одноголосый) | Xixidok

Субтитры: английские

Режиссер: Стюарт Спарк

rating

В ролях:

Анна Доусон, Михаэла Лонгден, Дэниэл Трэйс, Джонни Виваш, Захари Ли, Дэвид Шеклтон, Кэл О’Коннелл

Описание:

При при испытании нового скафандра погружением на большую глубину молодая женщина-учёный сталкивается с неизвестным науке гигантским существом. После этого она приносит домой непонятный предмет, который оказывается яйцом глубинного монстра. Из него вылупляется плотоядный детёныш, и новоиспечённая «мамаша» решает его кормить и защищать...

Качество: BDRip 1080p | исходник Blu-Ray (GER) - Dark.Below.2016.MULTi.COMPLETE.BLURAY-XORBiTANT
Формат: MKV
Видео кодек: H.264
Аудио кодек: DTS/AC3

Видео: 1920x800 (2.40:1), 25.000 fps, MPEG-4 AVC ~9 402 kbps avg
Аудио#1: 48.0 kHz, Digital Theater Systems, 3/2 (L,C,R,l,r) + LFE ch, ~1509 kbps | AVO
Аудио#2: 48.0 kHz, AC3 Dolby Digital, 2/0 (L,R) ch, ~192 kbps | VO / Xixidok
Аудио#3: 48.0 kHz, Digital Theater Systems, 3/2 (L,C,R,l,r) + LFE ch, ~1509 kbps | ENG

скриншот   скриншот   скриншот  

General
Уникальный идентификатор : 193801536423404042175849642437042001976 (0x91CCD1774C8D428295302406DD985838)
Полное имя : The.Creature.Below.2016.BDRip.1080p-ylnian.mkv
Формат : Matroska
Версия формата : Version 4 / Version 2
Размер файла : 7,32 Гбайт
Продолжительность : 1 ч. 23 м.
Общий поток : 12,6 Мбит/сек
Название фильма : The.Creature.Below.2016.BDRip.1080p-ylnian
Дата кодирования : UTC 2017-07-04 09:59:49
Программа кодирования : mkvmerge v13.0.0 ('The Juggler') 64bit
Библиотека кодирования : libebml v1.3.4 + libmatroska v1.4.5

Видео
Идентификатор : 1
Формат : AVC
Формат/Информация : Advanced Video Codec
Профиль формата : High@L4.1
Параметр CABAC формата : Да
Параметр ReFrames формата : 5 кадров
Идентификатор кодека : V_MPEG4/ISO/AVC
Продолжительность : 1 ч. 23 м.
Битрейт : 9402 Кбит/сек
Ширина : 1920 пикселей
Высота : 800 пикселей
Соотношение сторон : 2,40:1
Режим частоты кадров : Постоянный
Частота кадров : 25,000 кадров/сек
Цветовое пространство : YUV
Субдискретизация насыщенности : 4:2:0
Битовая глубина : 8 бит
Тип развёртки : Прогрессивная
Бит/(Пиксели*Кадры) : 0.245
Размер потока : 5,46 Гбайт (75%)
Заголовок : The.Creature.Below.2016.BDRip.1080p-ylnian
Библиотека кодирования : x264 core 148 r2638 7599210
Настройки программы : cabac=1 / ref=5 / deblock=1:-3:-3 / analyse=0x3:0x133 / me=umh / subme=11 / psy=1 / psy_rd=1.05:0.00 / mixed_ref=1 / me_range=64 / chroma_me=1 / trellis=2 / 8x8dct=1 / cqm=0 / deadzone=21,11 / fast_pskip=0 / chroma_qp_offset=-4 / threads=12 / lookahead_threads=3 / sliced_threads=0 / nr=0 / decimate=1 / interlaced=0 / bluray_compat=0 / constrained_intra=0 / bframes=10 / b_pyramid=2 / b_adapt=2 / b_bias=0 / direct=2 / weightb=1 / open_gop=0 / weightp=2 / keyint=250 / keyint_min=23 / scenecut=40 / intra_refresh=0 / rc_lookahead=140 / rc=crf / mbtree=0 / crf=17.8 / qcomp=0.60 / qpmin=0 / qpmax=69 / qpstep=4 / vbv_maxrate=62500 / vbv_bufsize=78125 / crf_max=0.0 / nal_hrd=none / filler=0 / ip_ratio=1.30 / pb_ratio=1.20 / aq=2:0.80
Язык : English
Default : Да
Forced : Да

Аудио #1
Идентификатор : 2
Формат : DTS
Формат/Информация : Digital Theater Systems
Режим : 16
Параметр Endianness формата : Big
Идентификатор кодека : A_DTS
Продолжительность : 1 ч. 23 м.
Вид битрейта : Постоянный
Битрейт : 1509 Кбит/сек
Каналы : 6 каналов
Расположение каналов : Front: L C R, Side: L R, LFE
Частота : 48,0 КГц
Частота кадров : 93,750 кадра/сек (512 spf)
Битовая глубина : 16 бит
Метод сжатия : С потерями
Размер потока : 897 Мбайт (12%)
Заголовок : AVO (Карповский) (DTS 5.1 1509 kbps)
Язык : Russian
Default : Да
Forced : Да

Аудио #2
Идентификатор : 3
Формат : AC-3
Формат/Информация : Audio Coding 3
Параметр Endianness формата : Big
Идентификатор кодека : A_AC3
Продолжительность : 1 ч. 23 м.
Вид битрейта : Постоянный
Битрейт : 192 Кбит/сек
Каналы : 2 канала
Расположение каналов : Front: L R
Частота : 48,0 КГц
Частота кадров : 31,250 кадров/сек (1536 spf)
Битовая глубина : 16 бит
Метод сжатия : С потерями
Размер потока : 114 Мбайт (2%)
Заголовок : VO (Хихидок) (AC3 2.0 192 kbps)
Язык : Russian
Default : Нет
Forced : Нет

Аудио #3
Идентификатор : 4
Формат : DTS
Формат/Информация : Digital Theater Systems
Режим : 16
Параметр Endianness формата : Big
Идентификатор кодека : A_DTS
Продолжительность : 1 ч. 23 м.
Вид битрейта : Постоянный
Битрейт : 1509 Кбит/сек
Каналы : 6 каналов
Расположение каналов : Front: L C R, Side: L R, LFE
Частота : 48,0 КГц
Частота кадров : 93,750 кадра/сек (512 spf)
Битовая глубина : 16 бит
Метод сжатия : С потерями
Размер потока : 897 Мбайт (12%)
Заголовок : DTS 5.1 1509 kbps
Язык : English
Default : Нет
Forced : Нет

Текст
Идентификатор : 5
Формат : UTF-8
Идентификатор кодека : S_TEXT/UTF8
Идентификатор кодека/Информация : UTF-8 Plain Text
Продолжительность : 1 ч. 18 м.
Битрейт : 24 бит/сек
ElementCount : 587
Размер потока : 14,1 Кбайт (0%)
Язык : English
Default : Нет
Forced : Нет

Меню
00:00:00.000 : en:00:00:00.000
00:09:30.920 : en:00:09:30.920
00:19:47.400 : en:00:19:47.400
00:31:02.600 : en:00:31:02.600
00:42:16.400 : en:00:42:16.400
00:49:46.200 : en:00:49:46.200
01:01:01.440 : en:01:01:01.440
01:09:29.560 : en:01:09:29.560

piratbit.pw



Скачать Существо из бездны через торрент http://img11.lostpic.net/2017/07/04/7f1eacd4f95215a2273c39282c8c3a11.png Скачать фильм Существо из бездны через торрент бесплантно в хорошем качестве Описание: При при испытании нового скафандра погружением на большую глубину молодая женщина-учёный сталкивается с неизвестным науке ... 10 10 4
Торрент: Зарегистрирован [2017-07-04 19:13] · скачан: 15 раз
Статус: √ проверено
Размер: 7.32 GB
Как cкачать? Как скачать Существо из бездны через торрент | UTorrent

28-11-2019 20:33  

Отключить всю рекламу на сайте

04-07-2017 19:29 Существо из бездны Скачать торрент  

Топик был перенесен из форума Фильмы [HD 720p, 1080p] (Звук Cam, VO, DVO) в форум Фильмы с авторской озвучкой


schultzpiratbit.pw



05-07-2017 01:03 Существо из бездны Скачать торрент  

facepalmpiratbit.pw



    Дорогой пользователь! Огромная просьба, поблагодарите релизера, оцените раздачу и оставьте свои комментарий, если Вы скачали Существо из бездны через торрент бесплатно! Внесите свою лепту в развитие PiratBit!
    Комментировать посты могут только пользователи прошедшие не сложную регистрацию
    Показать сообщения:    

    Существо из бездны через торрент
    Скачать бесплатно Существо из бездны
    Существо из бездны скачать торрент
    Существо из бездны смотреть онлайн
    Cкачать фильм Существо из бездны бесплатно
    Существо из бездны скачать торрент в хорошем качестве
    Существо из бездны смотреть онлайн бесплатно в хорошем качестве


    Вы не можете начинать темы
    Вы не можете отвечать на сообщения
    Вы не можете редактировать свои сообщения
    Вы не можете удалять свои сообщения
    Вы не можете голосовать в опросах
    Вы не можете прикреплять файлы к сообщениям
    Вы можете скачивать файлы