1 сезон

1 сезон

iTunes

1

КиноПоиск HD

Кинопоиск HD

iTunes

13

1 сезон

RePack

30

Ultimate

ВАЖНО

ИГРА 18+

pack

RePack

MK11
pack

Легкие деньги

RePack

jed

RePack

fifa19

RePack

RDR2

RePack

NEED FOR SPEED™ PAYBACK

4 сезон

9 сезон

Бесстыжие 9 сезон

Все сериалы

все сериалы на PB.wtf

RePack

FAR CRY 5
  
Magnet ссылка

12 футов глубины / The Deep End / 12 Feet Deep (Мэтт Эскандари) [2016, триллер, WEB-DL 1080p] AVO [BadBajo] piratbit.pw

12 футов глубины через торрент piratbit.pw

Размер: 3.43 GB | Добавлен: 3 года 9 мес. назад | Торрент скачан:104 раза
Скачать  

22-06-2017 20:55 12 футов глубины Скачать торрент  

12 футов глубины / The Deep End / 12 Feet Deep

Год выпуска: 2016
Страна: США
Жанр: триллер
Продолжительность: 01:25:24
Перевод: Авторский одноголосый [BadBajo]
Примечание: Релиз без рекламы
Субтитры: английские
Режиссер: Мэтт Эскандари
В ролях:

Тобин Белл (McGradey), Дайан Фарр (Clara), Нора-Джейн Нун (Bree), Александра Парк (Jonna), Дональд Принц (Detective Zimmerman), Кристиан Блэкберн (David), Matthew Ryan Michaels (Boy at the Pool), Dogen Eyeler (Boy at the Pool)
Описание:
Две сестры после долгого расставания встречаются в бассейне, где провели большую часть своего детства. Впереди праздничные выходные, а так многое нужно рассказать. День заканчивается и бассейн закрывается. Одна из сестёр обнаружила пропажу обручального кольца, которое загадочным образом оказалось на дне бассейна. Пытаясь достать кольцо, сестры оказываются в смертельной ловушке.
Рейтинг:

Качество: WEB-DL 1080p
Формат: MKV
Видео: AVC, 1904x1064 (16:9), 4872 kbps, 23,976 fps, 0,100 bpp
Аудио №1: русский / AC3 / 5.1 / 48 kHz / 384 kbps / |BadBajo|
Аудио №2: английский / AC3 / 5.1 / 48 kHz / 384 kbps /
Навигация по главам: есть

General
Unique ID : 199093824537544776506655928347746695280 (0x95C8136A60AB4CD19CCF2D07DE34F870)
Complete name : E:\12.Feet.Deep.2016.1080p.WEB-DL.DD5.1.H264_rus_BadBajo.mkv
Format : Matroska
Format version : Version 4 / Version 2
File size : 3.43 GiB
Duration : 1 h 25 min
Overall bit rate : 5 755 kb/s
Movie name : 12.Feet.Deep.2016.1080p.WEB-DL.DD5.1.H264_rus_BadBajo
Encoded date : UTC 2017-06-22 18:57:04
Writing application : mkvmerge v9.5.0 ('Quiet Fire') 64bit
Writing library : libebml v1.3.4 + libmatroska v1.4.5
Cover : Yes
Attachments : cover.jpg

Video
ID : 1
Format : AVC
Format/Info : Advanced Video Codec
Format profile : High@L4
Format settings, CABAC : Yes
Format settings, ReFrames : 4 frames
Format settings, GOP : N=1
Codec ID : V_MPEG4/ISO/AVC
Duration : 1 h 25 min
Bit rate : 4 873 kb/s
Width : 1 904 pixels
Height : 1 064 pixels
Display aspect ratio : 16:9
Frame rate mode : Constant
Frame rate : 23.976 (24000/1001) FPS
Color space : YUV
Chroma subsampling : 4:2:0
Bit depth : 8 bits
Scan type : Progressive
Bits/(Pixel*Frame) : 0.100
Stream size : 2.91 GiB (85%)
Title : 12.Feet.Deep.2016.1080p.WEB-DL.DD5.1.H264-FGT
Language : English
Default : Yes
Forced : No
Color range : Limited
Color primaries : BT.709
Transfer characteristics : BT.709
Matrix coefficients : BT.709

Audio #1
ID : 2
Format : AC-3
Format/Info : Audio Coding 3
Mode extension : CM (complete main)
Format settings, Endianness : Big
Codec ID : A_AC3
Duration : 1 h 25 min
Bit rate mode : Constant
Bit rate : 384 kb/s
Channel(s) : 6 channels
Channel positions : Front: L C R, Side: L R, LFE
Sampling rate : 48.0 kHz
Frame rate : 31.250 FPS (1536 spf)
Compression mode : Lossy
Delay relative to video : -42 ms
Stream size : 235 MiB (7%)
Title : 12.Feet.Deep.2016.1080p.WEB-DL.DD5.1.H264_rus_BadBajo
Language : Russian
Default : Yes
Forced : Yes

Audio #2
ID : 3
Format : AC-3
Format/Info : Audio Coding 3
Mode extension : CM (complete main)
Format settings, Endianness : Big
Codec ID : A_AC3
Duration : 1 h 25 min
Bit rate mode : Constant
Bit rate : 384 kb/s
Channel(s) : 6 channels
Channel positions : Front: L C R, Side: L R, LFE
Sampling rate : 48.0 kHz
Frame rate : 31.250 FPS (1536 spf)
Compression mode : Lossy
Delay relative to video : -42 ms
Stream size : 235 MiB (7%)
Title : 12.Feet.Deep.2016.1080p.WEB-DL.DD5.1.H264-FGT
Language : English
Default : No
Forced : No

Text
ID : 4
Format : UTF-8
Codec ID : S_TEXT/UTF8
Codec ID/Info : UTF-8 Plain Text
Language : English
Default : No
Forced : No

Menu
00:00:00.000 : en:Chapter 1
00:10:02.602 : en:Chapter 2
00:21:21.280 : en:Chapter 3
00:29:37.776 : en:Chapter 4
00:41:23.481 : en:Chapter 5
00:50:10.007 : en:Chapter 6
00:59:41.578 : en:Chapter 7
01:09:51.187 : en:Chapter 8
01:21:21.877 : en:Chapter 9
piratbit.pw



Скачать 12 футов глубины через торрент http://i4.imageban.ru/out/2017/06/22/22975be8ba5184a6780f3363052d6b6f.jpg Скачать фильм 12 футов глубины через торрент бесплантно в хорошем качестве Описание: Две сестры после долгого расставания встречаются в бассейне, где провели большую часть своего детства. Впереди праздничные ... 5.5 10 4
Торрент: Зарегистрирован [2017-06-22 20:55] · скачан: 104 раз
Статус: √ проверено
Размер: 3.43 GB
Как cкачать? Как скачать 12 футов глубины через торрент | UTorrent

% Раздел Тема Автор DL S | L
T Релизы по Парсеру [Игры, Сериалы и Фильмы и другое...] [ 2.52 GB ] 12 футов глубины / The Deep End / 12 Feet Deep [2016 WEB-DL 720p] MVO [GreenРай Studio] bober100 Скачать
1 | 0
T Фильмы 2016 [DVDrip, WEB-DLRip, HDrip] (DUB, MVO) [ 1.37 GB ] 12 футов глубины / The Deep End / 12 Feet Deep [2016 WEB-DLRip] MVO [GreenРай Studio] bober100 Скачать
1 | 0
Фильмы с авторской озвучкой [ 1.47 GB ] 12 футов глубины / The Deep End / 12 Feet Deep [2016 WEB-DLRip] AVO [BadBajo] - ExKinoRay Enigma2010 Скачать
1 | 0

28-11-2019 20:33  

Отключить всю рекламу на сайте


    Дорогой пользователь! Огромная просьба, поблагодарите релизера, оцените раздачу и оставьте свои комментарий, если Вы скачали 12 футов глубины через торрент бесплатно! Внесите свою лепту в развитие PiratBit!
    Комментировать посты могут только пользователи прошедшие не сложную регистрацию
    Показать сообщения:    

    12 футов глубины через торрент
    Скачать бесплатно 12 футов глубины
    12 футов глубины скачать торрент
    12 футов глубины смотреть онлайн
    Cкачать фильм 12 футов глубины бесплатно
    12 футов глубины скачать торрент в хорошем качестве
    12 футов глубины смотреть онлайн бесплатно в хорошем качестве


    Вы не можете начинать темы
    Вы не можете отвечать на сообщения
    Вы не можете редактировать свои сообщения
    Вы не можете удалять свои сообщения
    Вы не можете голосовать в опросах
    Вы не можете прикреплять файлы к сообщениям
    Вы можете скачивать файлы