1 сезон

1 сезон

iTunes

1

iTunes

Кинопоиск HD

iTunes

13

1 сезон

RePack

30

Deluxe

ВАЖНО

ИГРА 18+

pack

RePack

MK11
pack

Легкие деньги

RePack

jed

RePack

fifa19

RePack

RDR2

RePack

NEED FOR SPEED™ PAYBACK

4 сезон

9 сезон

Бесстыжие 9 сезон

Все сериалы

все сериалы на PB.wtf

RePack

FAR CRY 5
  
Magnet ссылка

Соглашение / Inexchange (Зак Паркер) [2006 г., Ужасы, DVDRip, Любительский (одноголосый)] piratbit.pw

Соглашение через торрент piratbit.pw

Размер: 753 MB | Добавлен: 3 года 10 мес. назад | Торрент скачан:8 раз
Скачать  

20-06-2017 07:07 Соглашение Скачать торрент  

Соглашение / Inexchange
Год выпуска: 2006
Страна: США, Along The Tracks
Жанр: Ужасы
Продолжительность: 01:29:55
Перевод: Любительский (одноголосый)

Режиссер: Зак Паркер

Бюджет: $12 500
Премьера в мире: 17 января 2006

rating

В ролях: Шон Блоджетт, Тиффани Уилсон, Тодд Ричард Льюис, Саманта Эйлен Детурк, Брэдли Дж. Гюнтер, Дженнифер Линн Фишер, Эндрю В. Берт, Эрика Хос, Фредерик Вудрус, Джон Итон, Зик Паркер, Тесса Уинклер, Шеннон Рид, Мэтт Дженкинс, Ронни Вайли мл.

Описание: У Мори — большая проблема. Он — новичок в колледже, и все, кому не лень, смеются и издеваются над ним, а порой его просто игнорируют. Мори, практически, уже привык к этому, можно сказать, это неизбежно для него. Вот так и складывается его жизнь в колледже до тех пор, пока он не заключает некое соглашение. И проблемы Мори, начинают испаряться одна за другой.
Рекламы НЕТ!
Качество: DVDRip
Формат: AVI
Видео кодек: XviD
Аудио кодек: AC3
Видео: 640x352 (1.82:1), 25 fps, XviD build 73 ~969 kbps avg, 0.17 bit/pixel
Аудио#1: 48 kHz, AC3 Dolby Digital, 2/0 (L,R) ch, ~192 kbps

Общее
Полное имя : D:\torrent\Соглашение - Inexchange.avi
Формат : AVI
Формат/Информация : Audio Video Interleave
Размер файла : 753 Мбайт
Продолжительность : 1 ч. 29 м.
Общий поток : 1172 Кбит/сек
Название фильма : Соглашение - Inexchange [by Edich2]
Режиссёр : by Edich2
Программа кодирования : VirtualDubMod 1.5.10.3 | www.virtualdub-fr.org || (build 2550/release)
Примечание : RuTracker.org

Видео
Идентификатор : 0
Формат : MPEG-4 Visual
Профиль формата : Advanced Simple@L5
Параметр BVOP формата : 1
Параметр QPel формата : Нет
Параметр GMC формата : Без точки перехода
Параметр матрицы формата : Выборочная
Идентификатор кодека : XVID
Идентификатор кодека/Подсказка : XviD
Продолжительность : 1 ч. 29 м.
Битрейт : 970 Кбит/сек
Ширина : 640 пикселей
Высота : 352 пикселя
Соотношение сторон : 16:9
Частота кадров : 25,000 кадров/сек
Цветовое пространство : YUV
Субдискретизация насыщенности : 4:2:0
Битовая глубина : 8 бит
Тип развёртки : Прогрессивная
Метод сжатия : С потерями
Бит/(Пиксели*Кадры) : 0.172
Размер потока : 624 Мбайт (83%)
Библиотека кодирования : XviD 73

Аудио
Идентификатор : 1
Формат : AC-3
Формат/Информация : Audio Coding 3
Расширение режима : CM (complete main)
Параметр Endianness формата : Big
Идентификатор кодека : 2000
Продолжительность : 1 ч. 29 м.
Вид битрейта : Постоянный
Битрейт : 192 Кбит/сек
Каналы : 2 канала
Расположение каналов : Front: L R
Частота : 48,0 КГц
Частота кадров : 31,250 кадров/сек (1536 spf)
Метод сжатия : С потерями
Размер потока : 123 Мбайт (16%)
Выравнивание : Разделение по промежуткам
Продолжительность промежутка : 40 мс. (1,00 видеокадр)
Время предзагрузки промежутка : 500 мс.

piratbit.pw



Скачать Соглашение через торрент https://pic1.kartinco.top/images/11/atuk8.jpg Скачать фильм Соглашение через торрент бесплантно в хорошем качестве Описание: У Мори — большая проблема. Он — новичок в колледже, и все, кому не лень, смеются и издеваются над ним, а порой его просто ... 5 10 1
Торрент: Зарегистрирован [2017-06-20 07:07] · скачан: 8 раз
Статус: √ проверено
Размер: 753 MB
Как cкачать? Как скачать Соглашение через торрент | UTorrent

28-11-2019 20:33  

Отключить всю рекламу на сайте

    Дорогой пользователь! Огромная просьба, поблагодарите релизера, оцените раздачу и оставьте свои комментарий, если Вы скачали Соглашение через торрент бесплатно! Внесите свою лепту в развитие PiratBit!
    Комментировать посты могут только пользователи прошедшие не сложную регистрацию
    Показать сообщения:    

    Соглашение через торрент
    Скачать бесплатно Соглашение
    Соглашение скачать торрент
    Соглашение смотреть онлайн
    Cкачать фильм Соглашение бесплатно
    Соглашение скачать торрент в хорошем качестве
    Соглашение смотреть онлайн бесплатно в хорошем качестве


    Вы не можете начинать темы
    Вы не можете отвечать на сообщения
    Вы не можете редактировать свои сообщения
    Вы не можете удалять свои сообщения
    Вы не можете голосовать в опросах
    Вы не можете прикреплять файлы к сообщениям
    Вы можете скачивать файлы