1 сезон

1 сезон

iTunes

1

КиноПоиск HD

Кинопоиск HD

iTunes

13

1 сезон

RePack

30

Новинка

ВАЖНО

ИГРА 18+

pack

RePack

MK11
pack

Легкие деньги

RePack

jed

RePack

fifa19

RePack

RDR2

RePack

NEED FOR SPEED™ PAYBACK

4 сезон

9 сезон

Бесстыжие 9 сезон

Все сериалы

все сериалы на PB.wtf

RePack

FAR CRY 5
  
Magnet ссылка

Вдалеке от людей / Loin des hommes (Давид Эльхоффен ) [2014, драма, вестерн, военный, BDRip 720p от _denis_100 | NNNB] AVO + Original + Sub (Rus) piratbit.pw

Вдалеке от людей через торрент piratbit.pw

Размер: 4.83 GB | Добавлен: 3 года 10 мес. назад | Торрент скачан:22 раза
Скачать  

19-06-2017 16:06 Вдалеке от людей Скачать торрент  

Вдалеке от людей / Loin des hommes


Год выпуска: 2014
Страна: Франция
Жанр: драма, вестерн, военный
Продолжительность: 01:41:31
Перевод: Авторский одноголосый
Субтитры: русские
Режиссер: Давид Эльхоффен
В ролях: Вигго Мортенсен , Реда Катеб , Джамел Барек , Венсан Мартен , Николас Жиро , Жан-Жером Эспозито , Hatim Sadiki , Ян Говен , Антуан Режан , Соня Амори , Антуан Лоран , Анхела Молина
Описание:
Во время Алжирской войны отдается приказ выдать властям учителя французского в маленькой алжирской деревушке, заключившего невообразимое соглашение с диссидентом.

Качество: BDRip 720p
Контейнер (Расширение): MKV
Видео: 1280x534, 5532 Кбит/сек, 24 кадр/сек, 0,337 Бит/[Пиксели*Кадры]
Аудио №1: русский / AC3 / 5.1 / 48 kHz / 640 kbps / |Авторский одноголосый, Ю.Сербин|
Аудио №2: французский / AC3 / 5.1 / 48 kHz / 640 kbps /
Навигация по главам(Чаптеры): естьАвтор рипа: Группа:
Format : Matroska
Format version : Version 2
File size : 4.83 GiB
Duration : 1 h 41 min
Overall bit rate : 6 811 kb/s
Movie name : Loin des hommes.(2014).BDRip.720p.[denis100]
Encoded date : UTC 2017-06-19 15:37:50
Writing application : mkvmerge v5.8.0 ('No Sleep / Pillow') built on Sep 2 2012 15:37:04
Writing library : libebml v1.2.3 + libmatroska v1.3.0

Video
ID : 1
Format : AVC
Format/Info : Advanced Video Codec
Format profile : High@L4.1
Format settings, CABAC : Yes
Format settings, ReFrames : 11 frames
Codec ID : V_MPEG4/ISO/AVC
Duration : 1 h 41 min
Bit rate : 5 532 kb/s
Width : 1 280 pixels
Height : 534 pixels
Display aspect ratio : 2.40:1
Frame rate mode : Constant
Frame rate : 24.000 FPS
Color space : YUV
Chroma subsampling : 4:2:0
Bit depth : 8 bits
Scan type : Progressive
Bits/(Pixel*Frame) : 0.337
Stream size : 3.83 GiB (79%)
Title : Loin des hommes.(2014).BDRip.720p.[denis100]
Writing library : x264 core 150 r2833 df79067
Encoding settings : cabac=1 / ref=11 / deblock=1:-3:-3 / analyse=0x3:0x133 / me=umh / subme=11 / psy=1 / psy_rd=1.00:0.05 / mixed_ref=1 / me_range=32 / chroma_me=1 / trellis=2 / 8x8dct=1 / cqm=0 / deadzone=21,11 / fast_pskip=0 / chroma_qp_offset=-3 / threads=6 / lookahead_threads=1 / sliced_threads=0 / nr=0 / decimate=1 / interlaced=0 / bluray_compat=0 / constrained_intra=0 / bframes=12 / b_pyramid=2 / b_adapt=2 / b_bias=0 / direct=3 / weightb=1 / open_gop=0 / weightp=2 / keyint=240 / keyint_min=24 / scenecut=40 / intra_refresh=0 / rc=2pass / mbtree=0 / bitrate=5532 / ratetol=1.0 / qcomp=0.60 / qpmin=0 / qpmax=69 / qpstep=4 / cplxblur=20.0 / qblur=0.5 / ip_ratio=1.40 / pb_ratio=1.30 / aq=1:0.95
Language : English
Default : Yes
Forced : No

Audio #1
ID : 2
Format : AC-3
Format/Info : Audio Coding 3
Mode extension : CM (complete main)
Format settings, Endianness : Big
Codec ID : A_AC3
Duration : 1 h 41 min
Bit rate mode : Constant
Bit rate : 640 kb/s
Channel(s) : 6 channels
Channel positions : Front: L C R, Side: L R, LFE
Sampling rate : 48.0 kHz
Frame rate : 31.250 FPS (1536 spf)
Compression mode : Lossy
Stream size : 465 MiB (9%)
Title : AVO, Ю.Сербин
Language : Russian
Default : Yes
Forced : No

Audio #2
ID : 3
Format : AC-3
Format/Info : Audio Coding 3
Mode extension : CM (complete main)
Format settings, Endianness : Big
Codec ID : A_AC3
Duration : 1 h 41 min
Bit rate mode : Constant
Bit rate : 640 kb/s
Channel(s) : 6 channels
Channel positions : Front: L C R, Side: L R, LFE
Sampling rate : 48.0 kHz
Frame rate : 31.250 FPS (1536 spf)
Compression mode : Lossy
Stream size : 465 MiB (9%)
Language : French
Default : No
Forced : No

Text
ID : 4
Format : UTF-8
Codec ID : S_TEXT/UTF8
Codec ID/Info : UTF-8 Plain Text
Language : Russian
Default : No
Forced : No

Menu
00:00:00.000 : en:Chapter 01
00:06:12.458 : en:Chapter 02
00:12:33.833 : en:Chapter 03
00:19:47.458 : en:Chapter 04
00:25:58.500 : en:Chapter 05
00:31:24.125 : en:Chapter 06
00:37:04.958 : en:Chapter 07
00:44:00.166 : en:Chapter 08
00:50:30.916 : en:Chapter 09
00:56:56.666 : en:Chapter 10
01:01:55.250 : en:Chapter 11
01:08:43.750 : en:Chapter 12
01:15:29.375 : en:Chapter 13
01:21:26.833 : en:Chapter 14
01:30:07.541 : en:Chapter 15
01:36:33.541 : en:Chapter 16
piratbit.pw



Скачать Вдалеке от людей через торрент http://i6.imageban.ru/out/2017/06/19/16c67f4fa329c6778c920287b3dc48ee.png Скачать фильм Вдалеке от людей через торрент бесплантно в хорошем качестве Описание:Во время Алжирской войны отдается приказ выдать властям учителя французского в маленькой алжирской деревушке, заключившего ... 10 10 1
Info! Золотая раздача, скачанное не засчитывается.
Торрент: Зарегистрирован [2017-06-19 16:06] · скачан: 22 раз
Статус: √ проверено
Размер: 4.83 GB
Как cкачать? Как скачать Вдалеке от людей через торрент | UTorrent

% Раздел Тема Автор DL S | L
Фильмы с авторской озвучкой [ 1.45 GB ] Вдалеке от людей / Loin des hommes [2014 BDRip] [AVO] killermax2013 Скачать
1 | 0

28-11-2019 20:33  

Отключить всю рекламу на сайте

    Дорогой пользователь! Огромная просьба, поблагодарите релизера, оцените раздачу и оставьте свои комментарий, если Вы скачали Вдалеке от людей через торрент бесплатно! Внесите свою лепту в развитие PiratBit!
    Комментировать посты могут только пользователи прошедшие не сложную регистрацию
    Показать сообщения:    

    Вдалеке от людей через торрент
    Скачать бесплатно Вдалеке от людей
    Вдалеке от людей скачать торрент
    Вдалеке от людей смотреть онлайн
    Cкачать фильм Вдалеке от людей бесплатно
    Вдалеке от людей скачать торрент в хорошем качестве
    Вдалеке от людей смотреть онлайн бесплатно в хорошем качестве


    Вы не можете начинать темы
    Вы не можете отвечать на сообщения
    Вы не можете редактировать свои сообщения
    Вы не можете удалять свои сообщения
    Вы не можете голосовать в опросах
    Вы не можете прикреплять файлы к сообщениям
    Вы можете скачивать файлы