Marvel's Avengers Deluxe Edition (супер цена) 159р. Внимание количество ограничено!!!

2 сезон

iTunes

iTunes

1

iTunes

iTunes

iTunes

WEBRip

iTunes

30
pack

Новость дня

ВАЖНО

!!Акция!!

Alien_RageХит недели

RePack

Horizon Zero Dawn

ИГРА 18+

pack

RePack

jed

!!Акция!!

Alien_Rage

RePack

fifa19

RePack

Assassins Creed: Odyssey

RePack

NEED FOR SPEED™ PAYBACK

4 сезон

9 сезон

Бесстыжие 9 сезон

Все сериалы

все сериалы на PB.wtf

RePack

FAR CRY 5
  

Кухня. Последняя битва [2017, Комедия, BDRip 1080p] [Лицензия] piratbit.pw

Кухня. Последняя битва через торрент piratbit.pw

Размер: 9.41 GB | Добавлен: 3 года 3 мес. назад | Торрент скачан:539 раз
Скачать  

18-06-2017 07:54 Кухня. Последняя битва Скачать торрент  

Кухня. Последняя битва
Год выпуска: 2017
Страна: Россия
Жанр: Комедия
Продолжительность: 01:54:27
Перевод: оригинал [Лицензия]
Субтитры: отсутствуют

rating

В ролях:

Дмитрий Нагиев, Дмитрий Назаров, Сергей Лавыгин, Олег Табаков, Анфиса Черных, Кирилл Ковбас, Сергей Епишев, Никита Тарасов, Михаил Тарабукин, Михаил Башкатов

Описание:

Виктору Баринову по личной просьбе Президента России предстоит отправиться в Сочи на чемпионат мира среди профессиональных поваров и доказать, что он и его команда лучшие в мире! В тяжелой борьбе за звание победителя Шефу будет помогать «тёмная лошадка» — его родной сын Иван, о котором он неожиданно узнал накануне чемпионата.

Качество: BDRip 1080p
Формат: MKV
Видео кодек: H.264
Аудио кодек: AC3/DTS

Видео: MPEG-4 AVC, 9633 Кбит/с, 1920x804, 24 кадр/с
Аудио#1: Русский (AC3, 6 ch, 640 Кбит/с)
Аудио#2: Русский (DTS, 6 ch, 1509 Кбит/с)
скриншот   скриншот   скриншот   скриншот   скриншот  

Общее
Уникальный идентификатор : 248734309466274339338797712358010389334 (0xBB207C4866C3287FBB7D7082760E0356)
Полное имя : D:ЗагрузкиKuhnja.Poslednjaja.Bitva.2017.x264.BDRip.(1080p).OlLanDGroup.mkv
Формат : Matroska
Версия формата : Version 2
Размер файла : 9,41 Гбайт
Продолжительность : 1 ч. 54 м.
Общий поток : 11,8 Мбит/сек
Дата кодирования : UTC 2017-06-17 06:55:38
Программа кодирования : mkvmerge v5.6.0 ('Kenya Kane') built on May 27 2012 16:44:04
Библиотека кодирования : libebml v1.2.3 + libmatroska v1.3.0
Attachements : Cover - Kuhnja.Poslednjaja.Bitva.png

Видео
Идентификатор : 1
Формат : AVC
Формат/Информация : Advanced Video Codec
Профиль формата : High@L4.1
Параметр CABAC формата : Да
Параметр ReFrames формата : 5 кадров
Идентификатор кодека : V_MPEG4/ISO/AVC
Продолжительность : 1 ч. 54 м.
Битрейт : 9633 Кбит/сек
Ширина : 1920 пикселей
Высота : 804 пикселя
Соотношение сторон : 2,40:1
Режим частоты кадров : Постоянный
Частота кадров : 24,000 кадра/сек
Цветовое пространство : YUV
Субдискретизация насыщенности : 4:2:0
Битовая глубина : 8 бит
Тип развёртки : Прогрессивная
Бит/(Пиксели*Кадры) : 0.260
Размер потока : 7,50 Гбайт (80%)
Библиотека кодирования : x264 core 146 r2538 121396c
Настройки программы : cabac=1 / ref=5 / deblock=1:-2:-3 / analyse=0x3:0x133 / me=umh / subme=11 / psy=1 / psy_rd=0.95:0.05 / mixed_ref=1 / me_range=64 / chroma_me=1 / trellis=2 / 8x8dct=1 / cqm=0 / deadzone=21,11 / fast_pskip=0 / chroma_qp_offset=-3 / threads=12 / lookahead_threads=3 / sliced_threads=0 / nr=0 / decimate=0 / interlaced=fake / bluray_compat=0 / constrained_intra=0 / bframes=10 / b_pyramid=2 / b_adapt=2 / b_bias=0 / direct=3 / weightb=1 / open_gop=0 / weightp=2 / keyint=240 / keyint_min=23 / scenecut=40 / intra_refresh=0 / rc_lookahead=40 / rc=2pass / mbtree=0 / bitrate=9633 / ratetol=1.0 / qcomp=0.60 / qpmin=0 / qpmax=69 / qpstep=4 / cplxblur=20.0 / qblur=0.5 / vbv_maxrate=50000 / vbv_bufsize=62500 / nal_hrd=none / filler=0 / ip_ratio=1.40 / pb_ratio=1.30 / aq=1:1.00
Язык : Russian
Default : Да
Forced : Нет

Аудио #1
Идентификатор : 2
Формат : AC-3
Формат/Информация : Audio Coding 3
Расширение режима : CM (complete main)
Параметр Endianness формата : Big
Идентификатор кодека : A_AC3
Продолжительность : 1 ч. 54 м.
Вид битрейта : Постоянный
Битрейт : 640 Кбит/сек
Каналы : 6 каналов
Расположение каналов : Front: L C R, Side: L R, LFE
Частота : 48,0 КГц
Частота кадров : 31,250 кадров/сек (1536 spf)
Метод сжатия : С потерями
Размер потока : 524 Мбайт (5%)
Заголовок : Лицензия
Язык : Russian
Default : Да
Forced : Нет

Аудио #2
Идентификатор : 3
Формат : DTS
Формат/Информация : Digital Theater Systems
Режим : 16
Параметр Endianness формата : Big
Идентификатор кодека : A_DTS
Продолжительность : 1 ч. 54 м.
Вид битрейта : Постоянный
Битрейт : 1509 Кбит/сек
Каналы : 6 каналов
Расположение каналов : Front: L C R, Side: L R, LFE
Частота : 48,0 КГц
Частота кадров : 93,750 кадра/сек (512 spf)
Битовая глубина : 24 бит
Метод сжатия : С потерями
Размер потока : 1,21 Гбайт (13%)
Заголовок : Лицензия
Язык : Russian
Default : Нет
Forced : Нет

Меню
00:00:00.000 : ru:Chapter 01
00:00:39.208 : ru:Chapter 02
00:10:56.000 : ru:Chapter 03
00:24:09.000 : ru:Chapter 04
00:36:06.833 : ru:Chapter 05
00:48:49.625 : ru:Chapter 06
01:02:26.625 : ru:Chapter 07
01:20:13.333 : ru:Chapter 08
01:33:18.125 : ru:Chapter 09

x264 [info]: frame I:1749 Avg QP:15.91 size:187322
x264 [info]: frame P:44001 Avg QP:18.58 size: 84229
x264 [info]: frame B:119061 Avg QP:20.11 size: 35464
x264 [info]: consecutive B-frames: 3.9% 7.6% 11.8% 34.5% 19.0% 17.9% 3.8% 0.7% 0.4% 0.2% 0.2%
x264 [info]: mb I I16..4: 8.5% 68.2% 23.3%
x264 [info]: mb P I16..4: 3.2% 26.6% 4.8% P16..4: 25.1% 25.5% 6.9% 0.8% 0.1% skip: 7.1%
x264 [info]: mb B I16..4: 1.0% 4.8% 0.8% B16..8: 33.4% 19.8% 3.1% direct: 9.5% skip:27.6% L0:40.3% L1:43.6% BI:16.0%
x264 [info]: 8x8 transform intra:74.8% inter:62.4%
x264 [info]: direct mvs spatial:98.1% temporal:1.9%
x264 [info]: coded y,uvDC,uvAC intra: 78.6% 83.2% 57.3% inter: 32.0% 39.0% 16.2%
x264 [info]: i16 v,h,dc,p: 18% 18% 12% 52%
x264 [info]: i8 v,h,dc,ddl,ddr,vr,hd,vl,hu: 12% 10% 14% 9% 10% 11% 11% 11% 13%
x264 [info]: i4 v,h,dc,ddl,ddr,vr,hd,vl,hu: 32% 12% 21% 4% 6% 7% 6% 5% 6%
x264 [info]: i8c dc,h,v,p: 39% 26% 20% 15%
x264 [info]: Weighted P-Frames: Y:2.4% UV:1.6%
x264 [info]: ref P L0: 53.1% 12.5% 21.0% 6.6% 6.2% 0.7% 0.0%
x264 [info]: ref B L0: 80.8% 14.0% 4.0% 1.2%
x264 [info]: ref B L1: 94.4% 5.6%
x264 [info]: kb/s:9618.22

piratbit.pw



Скачать Кухня. Последняя битва через торрент http://s009.radikal.ru/i307/1706/87/b305f937a0ae.jpg Скачать фильм Кухня. Последняя битва [2017, Комедия, BDRip 1080p] [Лицензия]через торрент бесплантно в хорошем качестве Описание: Виктору Баринову по личной просьбе Президента России предстоит отправиться в Сочи на чемпионат мира среди профессиональных ... 9.9 10 19
Info! Золотая раздача, скачанное не засчитывается.
Торрент: Зарегистрирован [2017-06-18 07:54] · скачан: 539 раз
Статус: √ проверено
Размер: 9.41 GB
Как cкачать? Как скачать Кухня. Последняя битва через торрент | qTorrent

% Раздел Тема Автор DL S | L
Наши новые фильмы 2017 [ 748 MB ] Кухня. Последняя битва [2017 WEB-DLRip] bober100 Скачать
1 | 0
Наши новые фильмы 2017 [ 2.42 GB ] Кухня. Последняя битва [2017 BDRip-AVC] [] - ExKinoRay Enigma2010 Скачать
1 | 0
Наши новые фильмы 2017 [ 6.55 GB ] Кухня. Последняя битва [2017 BDRip 720p] Оригинальный [] - R.G.Resident schultz Скачать
1 | 0
Наши фильмы (Blu-ray, BD-Remux, HDDVD) [ 23.15 GB ] Кухня. Последняя битва [2017 Blu-ray 1080p] [] bober100 Скачать
1 | 0
Наши новые фильмы 2017 [ 1.47 GB ] Кухня. Последняя битва [2017 BDRip от R.G. Resident] -Lexx- Скачать
1 | 0
Наши фильмы (HD, WEB-DL 720p, 1080p) [ 3.96 GB ] Кухня. Последняя битва [2017 BDRip 720p] - ExKinoRay Enigma2010 Скачать
1 | 0
Наши новые фильмы 2017 [ 2.12 GB ] Кухня. Последняя битва [2017 BDRip-AVC от R.G. Resident] -Lexx- Скачать
1 | 0

28-11-2019 20:33  

Отключить всю рекламу на сайте

    Дорогой пользователь! Огромная просьба, поблагодарите релизера, оцените раздачу и оставьте свои комментарий, если Вы скачали Кухня. Последняя битва через торрент бесплатно! Внесите свою лепту в развитие PiratBit!
    Комментировать посты могут только пользователи прошедшие не сложную регистрацию
    Показать сообщения:    

    Кухня. Последняя битва через торрент
    Скачать бесплатно Кухня. Последняя битва
    Кухня. Последняя битва скачать торрент
    Кухня. Последняя битва смотреть онлайн
    Cкачать фильм Кухня. Последняя битва бесплатно
    Кухня. Последняя битва скачать торрент в хорошем качестве
    Кухня. Последняя битва смотреть онлайн бесплатно в хорошем качестве


    Вы не можете начинать темы
    Вы не можете отвечать на сообщения
    Вы не можете редактировать свои сообщения
    Вы не можете удалять свои сообщения
    Вы не можете голосовать в опросах
    Вы не можете прикреплять файлы к сообщениям
    Вы можете скачивать файлы