1 сезон

1 сезон

iTunes

1

КиноПоиск HD

Кинопоиск HD

iTunes

13

1 сезон

RePack

30

Новинка

ВАЖНО

ИГРА 18+

pack

RePack

MK11
pack

Легкие деньги

RePack

jed

RePack

fifa19

RePack

RDR2

RePack

NEED FOR SPEED™ PAYBACK

4 сезон

9 сезон

Бесстыжие 9 сезон

Все сериалы

все сериалы на PB.wtf

RePack

FAR CRY 5
  
Magnet ссылка

Дерево для башмаков / L'Albero Degli Zoccoli (Эрманно Ольми) [1978, драма, история, BDRip 720p by msltel] AVO piratbit.pw

Дерево для башмаков через торрент piratbit.pw

Размер: 6.41 GB | Добавлен: 3 года 10 мес. назад | Торрент скачан:2 раза
Скачать  

13-06-2017 05:39 Дерево для башмаков Скачать торрент  

Название: Дерево для башмаков
Оригинальное название: L'Albero Degli Zoccoli
Год выпуска: 1978
Страна: Италия
Жанр: драма, история
Продолжительность: 03:06:03
Перевод: авторский

Режиссёр: Эрманно Ольми

В ролях: Луиджи Орнаги, Франческа Мориги, Омар Бриньоли, Антонио Феррари, Тереза Брешьянини, Джузеппе Бриньоли, Карло Рота, Паскуалина Бролис

Описание: В центре повествования история жизни четырёх семей, живущих на ферме в окрестностях Бергамо в конце XIX столетия и возделывающих землю хозяина. Старый Ансельмо каждый год выращивает помидоры на две недели раньше остальных фермеров и с успехом продаёт их на рынке. Вдова Рунк стоит перед дилеммой отправлять ли младших из её шестерых детей в монастырский приют. Стефано, парень из соседней деревни, сватается к Магдалене, а весельчак Батисти каждый вечер рассказывает всему селению сказки...



Качество: BDRip 720p
Формат: MKV
Видео: MPEG-4 AVC, 4543 Kбит/с, 958x720
Аудио 1: русский, AC3, 192 kbps, 2 ch [авторский, Виктор Рутилов]
Аудио 2: итальянский, AC3, 192 kbps, 2 ch, 48 kHz [оригинал]
Субтитры 1: русские
Субтитры 2: английские
Имеются неименованные главы/чаптеры.
Общее
Уникальный идентификатор : 181595127496235340613905472930505471402 (0x889DF30A91051B9D842FD3B8C276B5AA)
Полное имя : D:\Video\Дерево для башмаков.1978.BDRip.720p by msltel.mkv
Формат : Matroska
Версия формата : Version 4 / Version 2
Размер файла : 6,41 Гбайт
Продолжительность : 3 ч. 6 м.
Общий поток : 4929 Кбит/сек
Название фильма : Rip by msltel
Дата кодирования : UTC 2017-06-13 01:48:28
Программа кодирования : mkvmerge v8.2.0 ('World of Adventure') 64bit
Библиотека кодирования : libebml v1.3.1 + libmatroska v1.4.2

Видео
Идентификатор : 1
Формат : AVC
Формат/Информация : Advanced Video Codec
Профиль формата : High@L4.1
Параметр CABAC формата : Да
Параметр ReFrames формата : 9 кадров
Идентификатор кодека : V_MPEG4/ISO/AVC
Продолжительность : 3 ч. 6 м.
Битрейт : 4543 Кбит/сек
Ширина : 958 пикселей
Высота : 720 пикселей
Соотношение сторон : 4:3
Режим частоты кадров : Постоянный
Частота кадров : 23,976 (24000/1001) кадра/сек
Цветовое пространство : YUV
Субдискретизация насыщенности : 4:2:0
Битовая глубина : 8 бит
Тип развёртки : Прогрессивная
Бит/(Пиксели*Кадры) : 0.275
Размер потока : 5,90 Гбайт (92%)
Библиотека кодирования : x264 core 146 r2538 121396c
Настройки программы : cabac=1 / ref=9 / deblock=1:-3:-2 / analyse=0x3:0x113 / me=umh / subme=11 / psy=1 / psy_rd=1.00:0.15 / mixed_ref=1 / me_range=32 / chroma_me=1 / trellis=2 / 8x8dct=1 / cqm=0 / deadzone=21,11 / fast_pskip=0 / chroma_qp_offset=-3 / threads=6 / lookahead_threads=1 / sliced_threads=0 / nr=0 / decimate=1 / interlaced=0 / bluray_compat=0 / constrained_intra=0 / bframes=11 / b_pyramid=2 / b_adapt=2 / b_bias=0 / direct=1 / weightb=1 / open_gop=0 / weightp=2 / keyint=230 / keyint_min=23 / scenecut=40 / intra_refresh=0 / rc_lookahead=40 / rc=crf / mbtree=0 / crf=19.3 / qcomp=0.60 / qpmin=0 / qpmax=69 / qpstep=4 / vbv_maxrate=62500 / vbv_bufsize=78125 / crf_max=0.0 / nal_hrd=none / filler=0 / ip_ratio=1.40 / pb_ratio=1.30 / aq=1:1.00
Язык : Italian
Default : Да
Forced : Нет

Аудио #1
Идентификатор : 2
Формат : AC-3
Формат/Информация : Audio Coding 3
Параметр Endianness формата : Big
Идентификатор кодека : A_AC3
Продолжительность : 3 ч. 6 м.
Вид битрейта : Постоянный
Битрейт : 192 Кбит/сек
Каналы : 2 канала
Расположение каналов : Front: L R
Частота : 48,0 КГц
Частота кадров : 31,250 кадров/сек (1536 spf)
Битовая глубина : 16 бит
Метод сжатия : С потерями
Размер потока : 256 Мбайт (4%)
Заголовок : AVO (Виктор Рутилов)
Язык : Russian
ServiceKind/String : Complete Main
Default : Да
Forced : Нет

Аудио #2
Идентификатор : 3
Формат : AC-3
Формат/Информация : Audio Coding 3
Параметр Endianness формата : Big
Идентификатор кодека : A_AC3
Продолжительность : 3 ч. 6 м.
Вид битрейта : Постоянный
Битрейт : 192 Кбит/сек
Каналы : 2 канала
Расположение каналов : Front: L R
Частота : 48,0 КГц
Частота кадров : 31,250 кадров/сек (1536 spf)
Битовая глубина : 16 бит
Метод сжатия : С потерями
Размер потока : 256 Мбайт (4%)
Заголовок : original
Язык : Italian
ServiceKind/String : Complete Main
Default : Нет
Forced : Нет

Текст #1
Идентификатор : 4
Формат : UTF-8
Идентификатор кодека : S_TEXT/UTF8
Идентификатор кодека/Информация : UTF-8 Plain Text
Продолжительность : 3 ч. 4 м.
Битрейт : 49 бит/сек
ElementCount : 1167
Размер потока : 66,6 Кбайт (0%)
Заголовок : русские
Язык : Russian
Default : Нет
Forced : Нет

Текст #2
Идентификатор : 5
Формат : UTF-8
Идентификатор кодека : S_TEXT/UTF8
Идентификатор кодека/Информация : UTF-8 Plain Text
Продолжительность : 2 ч. 59 м.
Битрейт : 39 бит/сек
ElementCount : 1097
Размер потока : 51,7 Кбайт (0%)
Заголовок : английские
Язык : English
Default : Нет
Forced : Нет

Меню
00:00:00.000 : :Chapter 01
00:13:36.415 : :Chapter 02
00:30:14.579 : :Chapter 03
00:45:15.312 : :Chapter 04
01:03:55.765 : :Chapter 05
01:19:30.098 : :Chapter 06
01:36:11.532 : :Chapter 07
01:46:21.274 : :Chapter 08
02:01:18.804 : :Chapter 09
02:13:33.338 : :Chapter 10
02:30:51.242 : :Chapter 11
02:47:37.247 : :Chapter 12
piratbit.pw



Скачать Дерево для башмаков через торрент http://s018.radikal.ru/i512/1706/e5/692e8f416743.jpg Скачать фильм Дерево для башмаков через торрент бесплантно в хорошем качестве Описание: В центре повествования история жизни четырёх семей, живущих на ферме в окрестностях Бергамо в конце XIX столетия и возделывающих ... 5 10 1
Info! Золотая раздача, скачанное не засчитывается.
Торрент: Зарегистрирован [2017-06-13 05:39] · скачан: 2 раз
Статус: √ проверено
Размер: 6.41 GB
Как cкачать? Как скачать Дерево для башмаков через торрент | UTorrent

28-11-2019 20:33  

Отключить всю рекламу на сайте

    Дорогой пользователь! Огромная просьба, поблагодарите релизера, оцените раздачу и оставьте свои комментарий, если Вы скачали Дерево для башмаков через торрент бесплатно! Внесите свою лепту в развитие PiratBit!
    Комментировать посты могут только пользователи прошедшие не сложную регистрацию
    Показать сообщения:    

    Дерево для башмаков через торрент
    Скачать бесплатно Дерево для башмаков
    Дерево для башмаков скачать торрент
    Дерево для башмаков смотреть онлайн
    Cкачать фильм Дерево для башмаков бесплатно
    Дерево для башмаков скачать торрент в хорошем качестве
    Дерево для башмаков смотреть онлайн бесплатно в хорошем качестве


    Вы не можете начинать темы
    Вы не можете отвечать на сообщения
    Вы не можете редактировать свои сообщения
    Вы не можете удалять свои сообщения
    Вы не можете голосовать в опросах
    Вы не можете прикреплять файлы к сообщениям
    Вы можете скачивать файлы