Ссылка на приватное зеркало нашего сайта всего за 1$. Внимание количество ограничено!!!

2 сезон

iTunes

iTunes

1

iTunes

iTunes

iTunes

WEBRip

iTunes

30
pack

Новость дня

ВАЖНО

!!Акция!!

Alien_RageХит недели

RePack

Horizon Zero Dawn

ИГРА 18+

pack

RePack

jed

!!Акция!!

Alien_Rage

RePack

fifa19

RePack

Assassins Creed: Odyssey

RePack

NEED FOR SPEED™ PAYBACK

4 сезон

9 сезон

Бесстыжие 9 сезон

Все сериалы

все сериалы на PB.wtf

RePack

FAR CRY 5
  

Спасти Пушкина (Филипп Коршунов, Павел Мирзоев) [2017, комедия, WEB-DL 1080p] iTunes piratbit.pw

Спасти Пушкина через торрент piratbit.pw

Размер: 2.86 GB | Добавлен: 3 года 3 мес. назад | Торрент скачан:159 раз
Скачать  

06-06-2017 18:52 Спасти Пушкина Скачать торрент  

Спасти Пушкина

Год выпуска: 2017
Страна: Россия
Жанр: комедия
Продолжительность: 01:23:14
Перевод: Не требуется [Русский] (iTunes)
Режиссер: Филипп Коршунов , Павел Мирзоев
В ролях:

Константин Крюков (Пушкин), Ирина Крутик (учительница), Алексей Лукин (Федя), Денис Сухомлинов (Егор), Арсений Гусев (Википедия), Юрий Гальцев (директор), Дарья Петриченко (Милана), Сергей Рост (издатель), Арина Постникова (Виолетта), Влад Красавин (Вадим, видеоблогер), Данил Дмитриев (Влад), Маргарита Аброськина (Наталья Гончарова)
Описание:
Всем известно, что А. С. Пушкин - наше всё. Поэтому ученики современного московского лицея хотят во что бы то ни стало спасти великого поэта от неминуемой смерти на дуэли. Школьники с помощью машины времени переносят Александра Сергеевича в XXI век, но и в наши дни его подстерегает немало опасностей.
Рейтинг:

Качество: WEB-DL 1080p
Формат: MKV
Видео: AVC, 1920x806 (2.40:1), 4444 kbps, 24 fps, 0,120 bpp
Аудио: русский / AC3 / 5.1 / 48 kHz / 384 kbps / |Оригинал|
Навигация по главам: есть
Релиз от:
General
Unique ID : 171540905391146689393852681091099709107 (0x810D939E8C75AF9B9FBB96B7D4D4CEB3)
Complete name : E:\Spasti.Pushkina.2017.1080p.WEB-DL.Rus.HDCLUB.mkv
Format : Matroska
Format version : Version 2
File size : 2.86 GiB
Duration : 1 h 23 min
Overall bit rate : 4 926 kb/s
Movie name : Spasti Pushkina (2017) - Release for HDCLUB
Encoded date : UTC 2017-06-05 19:10:45
Writing application : mkvmerge v3.4.0 ('Rapunzel') built on May 15 2010 09:38:20
Writing library : libebml v0.8.0 + libmatroska v0.9.0

Video
ID : 1
Format : AVC
Format/Info : Advanced Video Codec
Format profile : High@L4
Format settings, CABAC : Yes
Format settings, ReFrames : 5 frames
Codec ID : V_MPEG4/ISO/AVC
Duration : 1 h 23 min
Bit rate : 4 444 kb/s
Width : 1 920 pixels
Height : 806 pixels
Display aspect ratio : 2.40:1
Frame rate mode : Constant
Frame rate : 24.000 FPS
Color space : YUV
Chroma subsampling : 4:2:0
Bit depth : 8 bits
Scan type : Progressive
Bits/(Pixel*Frame) : 0.120
Stream size : 2.58 GiB (90%)
Title : Spasti Pushkina (2017) - Release for HDCLUB
Language : Russian
Default : Yes
Forced : No
Color range : Limited
Color primaries : BT.709
Transfer characteristics : BT.709
Matrix coefficients : BT.709

Audio
ID : 2
Format : AC-3
Format/Info : Audio Coding 3
Mode extension : CM (complete main)
Format settings, Endianness : Big
Codec ID : A_AC3
Duration : 1 h 23 min
Bit rate mode : Constant
Bit rate : 384 kb/s
Channel(s) : 6 channels
Channel positions : Front: L C R, Side: L R, LFE
Sampling rate : 48.0 kHz
Frame rate : 31.250 FPS (1536 spf)
Compression mode : Lossy
Stream size : 229 MiB (8%)
Title : AC3 5.1 @ 384 kbps
Language : Russian
Default : Yes
Forced : No

Menu
00:00:00.000 : en:1
00:06:54.000 : en:2
00:12:44.875 : en:3
00:20:04.000 : en:4
00:25:38.041 : en:5
00:30:59.666 : en:6
00:35:39.999 : en:7
00:41:56.499 : en:8
00:48:23.124 : en:9
00:53:53.124 : en:10
01:00:25.624 : en:11
01:05:37.790 : en:12
01:12:35.415 : en:13
piratbit.pw



Скачать Спасти Пушкина через торрент http://i4.imageban.ru/out/2017/06/06/79565189112f6743e51d7a2143773720.jpg Скачать фильм Спасти Пушкина через торрент бесплантно в хорошем качестве Описание: Всем известно, что А. С. Пушкин - наше всё. Поэтому ученики современного московского лицея хотят во что бы то ни стало спасти ... 8.2 10 10
Торрент: Зарегистрирован [2017-06-06 18:52] · скачан: 159 раз
Статус: √ проверено
Размер: 2.86 GB
Как cкачать? Как скачать Спасти Пушкина через торрент | qTorrent

% Раздел Тема Автор DL S | L
Наши фильмы (HD, WEB-DL 720p, 1080p) [ 2.55 GB ] Спасти Пушкина [2017 WEB-DL 720p] smaster Скачать
1 | 0
Наши новые фильмы 2017 [ 1.32 GB ] Спасти Пушкина [2017 Россия WEB-DLRip-AVC] - ExKinoRay Enigma2010 Скачать
1 | 0

28-11-2019 20:33  

Отключить всю рекламу на сайте

    Дорогой пользователь! Огромная просьба, поблагодарите релизера, оцените раздачу и оставьте свои комментарий, если Вы скачали Спасти Пушкина через торрент бесплатно! Внесите свою лепту в развитие PiratBit!
    Комментировать посты могут только пользователи прошедшие не сложную регистрацию
    Показать сообщения:    

    Спасти Пушкина через торрент
    Скачать бесплатно Спасти Пушкина
    Спасти Пушкина скачать торрент
    Спасти Пушкина смотреть онлайн
    Cкачать фильм Спасти Пушкина бесплатно
    Спасти Пушкина скачать торрент в хорошем качестве
    Спасти Пушкина смотреть онлайн бесплатно в хорошем качестве


    Вы не можете начинать темы
    Вы не можете отвечать на сообщения
    Вы не можете редактировать свои сообщения
    Вы не можете удалять свои сообщения
    Вы не можете голосовать в опросах
    Вы не можете прикреплять файлы к сообщениям
    Вы можете скачивать файлы