1 сезон

1 сезон

iTunes

1

КиноПоиск HD

Кинопоиск HD

iTunes

13

1 сезон

RePack

30

Новинка

ВАЖНО

ИГРА 18+

pack

RePack

MK11
pack

Легкие деньги

RePack

jed

RePack

fifa19

RePack

RDR2

RePack

NEED FOR SPEED™ PAYBACK

4 сезон

9 сезон

Бесстыжие 9 сезон

Все сериалы

все сериалы на PB.wtf

RePack

FAR CRY 5
  
Magnet ссылка

Больше, чем жизнь / Bigger Than Life (Николас Рэй) [1956, драма, BDRip 720p by msltel] AVO piratbit.pw

Больше, чем жизнь через торрент piratbit.pw

Размер: 2.91 GB | Добавлен: 3 года 10 мес. назад | Торрент скачан:1 раз
Скачать  

05-06-2017 11:26 Больше, чем жизнь Скачать торрент  

Название: Больше чем жизнь
Оригинальное название: Bigger Than Life
Год выпуска: 1956
Страна: США
Жанр: драма
Продолжительность: 01:35:22
Перевод: авторский

Режиссёр: Николас Рэй

В ролях: Джеймс Мэйсон, Барбара Раш, Кристофер Олсен, Уолтер Мэттау, Роберт Саймон, Роланд Уинтерс, Расти Лэйн, Рэйчел Стефенс, Кипп Хэмилтон, Ди Аакер

Описание: Эд Эвери — перегруженный работой и неудовлетворённый своей жизнью школьный учитель. По предписанию врачей, диагностировавших у него редкое заболевание артерий, Эд начинает принимать экспериментальный препарат «Кортизон», передозировка которого действует на его психику и поведение. Наркотик служит катализатором для проявления ранее подавляемых фрустраций и маний. Презирая свою «мелкую домашнюю жизнь», Эд терроризирует любящую жену и сына, жизнь которых оказывается в смертельной опасности... Сюжет основан на медицинской статье Бертона Руше «Ростом десять футов» (Ten Feet Tall, 1955) в New Yorker.



Качество: BDRip 720p
Формат: MKV
Видео: MPEG-4 AVC, 3976 Kбит/с, 1280x502
Аудио 1: русский, AC3, 192 kbps, 1 ch [авторский, Юрий Сербин]
Аудио 2: английский, AC3, 192 kbps, 1 ch, 48 kHz [оригинал]
Субтитры 1: русские
Субтитры 2: английские
Имеются неименованные главы/чаптеры.
Общее
Уникальный идентификатор : 207457111997647559603617289138358088849 (0x9C12C952A3D82CD9B2F17E90FE767491)
Полное имя : D:\Video\Больше чем жизнь.1956.BDRip.720p by msltel.mkv
Формат : Matroska
Версия формата : Version 4 / Version 2
Размер файла : 2,91 Гбайт
Продолжительность : 1 ч. 35 м.
Общий поток : 4362 Кбит/сек
Название фильма : Rip by msltel
Дата кодирования : UTC 2017-06-05 10:32:40
Программа кодирования : mkvmerge v8.2.0 ('World of Adventure') 64bit
Библиотека кодирования : libebml v1.3.1 + libmatroska v1.4.2

Видео
Идентификатор : 1
Формат : AVC
Формат/Информация : Advanced Video Codec
Профиль формата : High@L4.1
Параметр CABAC формата : Да
Параметр ReFrames формата : 9 кадров
Идентификатор кодека : V_MPEG4/ISO/AVC
Продолжительность : 1 ч. 35 м.
Битрейт : 3976 Кбит/сек
Ширина : 1280 пикселей
Высота : 502 пикселя
Соотношение сторон : 2,550
Режим частоты кадров : Постоянный
Частота кадров : 23,976 (24000/1001) кадра/сек
Цветовое пространство : YUV
Субдискретизация насыщенности : 4:2:0
Битовая глубина : 8 бит
Тип развёртки : Прогрессивная
Бит/(Пиксели*Кадры) : 0.258
Размер потока : 2,65 Гбайт (91%)
Библиотека кодирования : x264 core 146 r2538 121396c
Настройки программы : cabac=1 / ref=9 / deblock=1:-3:-2 / analyse=0x3:0x113 / me=umh / subme=11 / psy=1 / psy_rd=1.00:0.15 / mixed_ref=1 / me_range=32 / chroma_me=1 / trellis=2 / 8x8dct=1 / cqm=0 / deadzone=21,11 / fast_pskip=0 / chroma_qp_offset=-3 / threads=6 / lookahead_threads=1 / sliced_threads=0 / nr=0 / decimate=1 / interlaced=0 / bluray_compat=0 / constrained_intra=0 / bframes=7 / b_pyramid=2 / b_adapt=2 / b_bias=0 / direct=1 / weightb=1 / open_gop=0 / weightp=2 / keyint=230 / keyint_min=23 / scenecut=40 / intra_refresh=0 / rc_lookahead=40 / rc=crf / mbtree=0 / crf=20.0 / qcomp=0.60 / qpmin=0 / qpmax=69 / qpstep=4 / vbv_maxrate=62500 / vbv_bufsize=78125 / crf_max=0.0 / nal_hrd=none / filler=0 / ip_ratio=1.40 / pb_ratio=1.30 / aq=1:1.00
Язык : English
Default : Да
Forced : Нет

Аудио #1
Идентификатор : 2
Формат : AC-3
Формат/Информация : Audio Coding 3
Параметр Endianness формата : Big
Идентификатор кодека : A_AC3
Продолжительность : 1 ч. 35 м.
Вид битрейта : Постоянный
Битрейт : 192 Кбит/сек
Каналы : 1 канал
Расположение каналов : Front: C
Частота : 48,0 КГц
Частота кадров : 31,250 кадров/сек (1536 spf)
Битовая глубина : 16 бит
Метод сжатия : С потерями
Размер потока : 131 Мбайт (4%)
Заголовок : AVO (Юрий Сербин)
Язык : Russian
ServiceKind/String : Complete Main
Default : Да
Forced : Нет

Аудио #2
Идентификатор : 3
Формат : AC-3
Формат/Информация : Audio Coding 3
Параметр Endianness формата : Big
Идентификатор кодека : A_AC3
Продолжительность : 1 ч. 35 м.
Вид битрейта : Постоянный
Битрейт : 192 Кбит/сек
Каналы : 1 канал
Расположение каналов : Front: C
Частота : 48,0 КГц
Частота кадров : 31,250 кадров/сек (1536 spf)
Битовая глубина : 16 бит
Метод сжатия : С потерями
Размер потока : 131 Мбайт (4%)
Заголовок : original
Язык : English
ServiceKind/String : Complete Main
Default : Нет
Forced : Нет

Текст #1
Идентификатор : 4
Формат : UTF-8
Идентификатор кодека : S_TEXT/UTF8
Идентификатор кодека/Информация : UTF-8 Plain Text
Продолжительность : 1 ч. 33 м.
Битрейт : 108 бит/сек
ElementCount : 1349
Размер потока : 74,2 Кбайт (0%)
Заголовок : русские
Язык : Russian
Default : Нет
Forced : Нет

Текст #2
Идентификатор : 5
Формат : UTF-8
Идентификатор кодека : S_TEXT/UTF8
Идентификатор кодека/Информация : UTF-8 Plain Text
Продолжительность : 1 ч. 34 м.
Битрейт : 72 бит/сек
ElementCount : 1289
Размер потока : 50,0 Кбайт (0%)
Заголовок : английские
Язык : English
Default : Нет
Forced : Нет

Меню
00:00:00.000 : :Chapter 01
00:01:49.859 : :Chapter 02
00:06:08.366 : :Chapter 03
00:12:27.663 : :Chapter 04
00:16:47.840 : :Chapter 05
00:20:00.699 : :Chapter 06
00:23:54.141 : :Chapter 07
00:27:28.146 : :Chapter 08
00:30:25.824 : :Chapter 09
00:35:00.223 : :Chapter 10
00:40:51.239 : :Chapter 11
00:45:40.612 : :Chapter 12
00:49:55.158 : :Chapter 13
01:00:20.867 : :Chapter 14
01:06:52.550 : :Chapter 15
01:12:07.906 : :Chapter 16
01:14:21.206 : :Chapter 17
01:15:12.424 : :Chapter 18
01:25:12.607 : :Chapter 19
01:27:21.778 : :Chapter 20
01:35:21.506 : :Chapter 21
piratbit.pw



Скачать Больше, чем жизнь через торрент http://s019.radikal.ru/i626/1706/33/48b2d8ee587a.jpg Скачать фильм Больше, чем жизнь через торрент бесплантно в хорошем качестве Описание: Эд Эвери — перегруженный работой и неудовлетворённый своей жизнью школьный учитель. По предписанию врачей, диагностировавших у ... 5 10 1
Info! Золотая раздача, скачанное не засчитывается.
Торрент: Зарегистрирован [2017-06-05 11:26] · скачан: 1 раз
Статус: √ проверено
Размер: 2.91 GB
Как cкачать? Как скачать Больше, чем жизнь через торрент | UTorrent

% Раздел Тема Автор DL S | L
Фильмы с авторской озвучкой [ 8.86 GB ] Больше чем жизнь / Bigger Than Life [1956 BDRip 1080p by msltel] AVO msltel Скачать
1 | 0

28-11-2019 20:33  

Отключить всю рекламу на сайте

    Дорогой пользователь! Огромная просьба, поблагодарите релизера, оцените раздачу и оставьте свои комментарий, если Вы скачали Больше, чем жизнь через торрент бесплатно! Внесите свою лепту в развитие PiratBit!
    Комментировать посты могут только пользователи прошедшие не сложную регистрацию
    Показать сообщения:    

    Больше, чем жизнь через торрент
    Скачать бесплатно Больше, чем жизнь
    Больше, чем жизнь скачать торрент
    Больше, чем жизнь смотреть онлайн
    Cкачать фильм Больше, чем жизнь бесплатно
    Больше, чем жизнь скачать торрент в хорошем качестве
    Больше, чем жизнь смотреть онлайн бесплатно в хорошем качестве


    Вы не можете начинать темы
    Вы не можете отвечать на сообщения
    Вы не можете редактировать свои сообщения
    Вы не можете удалять свои сообщения
    Вы не можете голосовать в опросах
    Вы не можете прикреплять файлы к сообщениям
    Вы можете скачивать файлы