1 сезон

1 сезон

iTunes

1

КиноПоиск HD

Кинопоиск HD

iTunes

13

1 сезон

RePack

30

Ultimate

ВАЖНО

ИГРА 18+

pack

RePack

MK11
pack

Легкие деньги

RePack

jed

RePack

fifa19

RePack

RDR2

RePack

NEED FOR SPEED™ PAYBACK

4 сезон

9 сезон

Бесстыжие 9 сезон

Все сериалы

все сериалы на PB.wtf

RePack

FAR CRY 5
  
Magnet ссылка

]Бродяга / The Vagrant (Крис Уолэс) [1992 г., Ужасы, триллер, комедия, HDRip, Авторский (одноголосый) Андрей Гаврилов piratbit.pw

]Бродяга через торрент piratbit.pw

Размер: 1.45 GB | Добавлен: 3 года 10 мес. назад | Торрент скачан:19 раз
Скачать  

30-05-2017 13:45 ]Бродяга Скачать торрент  

Бродяга / The Vagrant
Год выпуска: 1992
Страна: Франция, США
Жанр: Ужасы, триллер, комедия
Продолжительность: 01:31:26
Перевод: Авторский (одноголосый закадровый) Андрей Гаврилов
Режиссер: Крис Уолэс

Бюджет: $9 500 000
Премьера в мире: 15 мая 1992

rating

В ролях: Билл Пэкстон, Майкл Айронсайд, Маршалл Белл, Митци Кэптчер, Коллин Кэмп, Пэтрика Дарбо, Марк МакКлюр, Стюарт Пэнкин, Тедди Уилсон, Дерек Марк Лохран, Милдред Брайон, Бретт Марстон, Кен Лав, Кэтерин Госни, Стив Гейтс

Описание: Неплохой ужастик с элементами черного юмора. Грэм Краковски (Пэкстон), тихий и скромный менеджер, покупает дом, а вместе с ним и целую кучу неприятностей. Рядом с домом обитает отвратительный бродяга. Он постоянно пробирается в дом, а потом начинаются убийства, в которых детектив (Айронсайд) обвиняет Грэма. Суд оправдал насчастного, который уже начал верить, что сам совершает убийства во сне. Он решил уехать и устроился менеджером захолустного мотеля, но бродяга последовал за ним и состоялось еще одно убийство. Парень, доведенный до отчаяния, забывает о своей скромности и переходит в наступление.

Качество: HDRip
Формат: AVI
Видео кодек: XviD
Аудио кодек: AC3
Видео: 720x384 (1.88:1), 23.976 fps, XviD build 73 ~1874 kbps avg, 0.28 bit/pixel
Аудио#1: 48 kHz, AC3 Dolby Digital, 2/0 (L,R) ch, ~192 kbps русский
Аудио#2: 48 kHz, AC3 Dolby Digital, 2/0 (L,R) ch, ~192 kbps оригинал английский





Общее
Полное имя : D:\torrent\Бродяга.1992.HDRip.avi
Формат : AVI
Формат/Информация : Audio Video Interleave
Размер файла : 1,45 Гбайт
Продолжительность : 1 ч. 31 м.
Общий поток : 2273 Кбит/сек
Программа кодирования : VirtualDubMod 1.5.10.2 (build 2540/release)
Библиотека кодирования : VirtualDubMod build 2540/release

Видео
Идентификатор : 0
Формат : MPEG-4 Visual
Профиль формата : Advanced Simple@L5
Параметр BVOP формата : 1
Параметр QPel формата : Нет
Параметр GMC формата : Без точки перехода
Параметр матрицы формата : Выборочная
Идентификатор кодека : XVID
Идентификатор кодека/Подсказка : XviD
Продолжительность : 1 ч. 31 м.
Битрейт : 1875 Кбит/сек
Ширина : 720 пикселей
Высота : 384 пикселя
Соотношение сторон : 1,85:1
Частота кадров : 23,976 (24000/1001) кадра/сек
Цветовое пространство : YUV
Субдискретизация насыщенности : 4:2:0
Битовая глубина : 8 бит
Тип развёртки : Прогрессивная
Метод сжатия : С потерями
Бит/(Пиксели*Кадры) : 0.283
Размер потока : 1,20 Гбайт (82%)
Библиотека кодирования : XviD 73

Аудио #1
Идентификатор : 1
Формат : AC-3
Формат/Информация : Audio Coding 3
Расширение режима : CM (complete main)
Параметр Endianness формата : Big
Идентификатор кодека : 2000
Продолжительность : 1 ч. 31 м.
Вид битрейта : Постоянный
Битрейт : 192 Кбит/сек
Каналы : 2 канала
Расположение каналов : Front: L R
Частота : 48,0 КГц
Частота кадров : 31,250 кадров/сек (1536 spf)
Метод сжатия : С потерями
Размер потока : 125 Мбайт (8%)
Выравнивание : Разделение по промежуткам
Продолжительность промежутка : 42 мс. (1,00 видеокадр)
Время предзагрузки промежутка : 500 мс.

Аудио #2
Идентификатор : 2
Формат : AC-3
Формат/Информация : Audio Coding 3
Расширение режима : CM (complete main)
Параметр Endianness формата : Big
Идентификатор кодека : 2000
Продолжительность : 1 ч. 31 м.
Вид битрейта : Постоянный
Битрейт : 192 Кбит/сек
Каналы : 2 канала
Расположение каналов : Front: L R
Частота : 48,0 КГц
Частота кадров : 31,250 кадров/сек (1536 spf)
Метод сжатия : С потерями
Размер потока : 125 Мбайт (8%)
Выравнивание : Разделение по промежуткам
Продолжительность промежутка : 42 мс. (1,00 видеокадр)
Время предзагрузки промежутка : 500 мс.

piratbit.pw



Скачать ]Бродяга через торрент https://pic1.kartinco.top/images/11/hp6al.jpg Скачать фильм ]Бродяга через торрент бесплантно в хорошем качестве Описание: Неплохой ужастик с элементами черного юмора. Грэм Краковски (Пэкстон), тихий и скромный менеджер, покупает дом, а вместе с ним и ... 7.5 10 2
Торрент: Зарегистрирован [2017-05-30 13:45] · скачан: 19 раз
Статус: √ проверено
Размер: 1.45 GB
Как cкачать? Как скачать ]Бродяга через торрент | UTorrent

28-11-2019 20:33  

Отключить всю рекламу на сайте

    Дорогой пользователь! Огромная просьба, поблагодарите релизера, оцените раздачу и оставьте свои комментарий, если Вы скачали ]Бродяга через торрент бесплатно! Внесите свою лепту в развитие PiratBit!
    Комментировать посты могут только пользователи прошедшие не сложную регистрацию
    Показать сообщения:    

    ]Бродяга через торрент
    Скачать бесплатно ]Бродяга
    ]Бродяга скачать торрент
    ]Бродяга смотреть онлайн
    Cкачать фильм ]Бродяга бесплатно
    ]Бродяга скачать торрент в хорошем качестве
    ]Бродяга смотреть онлайн бесплатно в хорошем качестве


    Вы не можете начинать темы
    Вы не можете отвечать на сообщения
    Вы не можете редактировать свои сообщения
    Вы не можете удалять свои сообщения
    Вы не можете голосовать в опросах
    Вы не можете прикреплять файлы к сообщениям
    Вы можете скачивать файлы