Marvel's Avengers Deluxe Edition (супер цена) 159р. Внимание количество ограничено!!!

2 сезон

iTunes

iTunes

1

iTunes

iTunes

iTunes

WEBRip

iTunes

30
pack

Новость дня

ВАЖНО

!!Акция!!

Alien_RageХит недели

RePack

Horizon Zero Dawn

ИГРА 18+

pack

RePack

jed

!!Акция!!

Alien_Rage

RePack

fifa19

RePack

Assassins Creed: Odyssey

RePack

NEED FOR SPEED™ PAYBACK

4 сезон

9 сезон

Бесстыжие 9 сезон

Все сериалы

все сериалы на PB.wtf

RePack

FAR CRY 5
  

Приключения желтого чемоданчика (Илья Фрэз) [1970, комедия, семейный, DVDRip-AVC] piratbit.pw

Приключения желтого чемоданчика через торрент piratbit.pw

Размер: 3.18 GB | Добавлен: 3 года 3 мес. назад | Торрент скачан:65 раз
Скачать  

29-05-2017 14:24 Приключения желтого чемоданчика Скачать торрент  

Приключения желтого чемоданчика

Год выпуска: 1970
Страна: СССР
Жанр: комедия, семейный

Продолжительность: 01:14:01
Перевод: Не требуется [Русский]
Субтитры: русские, английские
Режиссер: Илья Фрэз
В ролях:

Андрей Громов (Петя), Татьяна Пельтцер (бабушка), Евгений Лебедев (доктор), Наталья Селезнёва (мать Пети), Борис Быстров (лётчик Верёвкин), Лариса Тихонова (Виолетта), Виктор Тихонов (Фёдор Буланкин), Евгений Весник (командир неба), Константин Кунтышев (прораб), Виктория Чернакова (Тома), Александр Кавалеров (Гришка, главный хулиган), Евгений Модель (второй хулиган)
Описание:
Мальчик Петя был таким пугливым, что его мама решила обратиться к доктору. У волшебника-доктора есть прекрасное лекарство - «конфеты настоящей храбрости», да вот беда: чемоданчик с чудо-медикаментами попадает в чужие руки.
Рейтинг:

Качество: DVDRip-AVC
Формат: MKV
Видео: AVC, 720x552 (4:3), 5500 kbps, 25 fps, 0,554 bpp
Аудио №1: русский / AC3 / 5.1 / 48 kHz / 448 kbps / |Оригинал|
Аудио №2: русский / AC3 / 2.0 / 48 kHz / 192 kbps / |Оригинал|

General
Unique ID : 187918647522397733259494488723273678008 (0x8D5FD0A647617412A1A46877FF75FCB8)
Complete name : E:\Chemodanchik.1970.DVDRip-AVC.mkv
Format : Matroska
Format version : Version 4 / Version 2
File size : 3.18 GiB
Duration : 1 h 14 min
Overall bit rate : 6 147 kb/s
Encoded date : UTC 2017-05-29 10:38:20
Writing application : mkvmerge v7.8.0 ('River Man') 64bit built on Mar 27 2015 16:31:37
Writing library : libebml v1.3.1 + libmatroska v1.4.2
Cover : Yes
Attachments : cover.JPG

Video
ID : 1
Format : AVC
Format/Info : Advanced Video Codec
Format profile : High@L4.1
Format settings, CABAC : Yes
Format settings, ReFrames : 12 frames
Codec ID : V_MPEG4/ISO/AVC
Duration : 1 h 14 min
Bit rate : 5 500 kb/s
Width : 720 pixels
Height : 552 pixels
Display aspect ratio : 4:3
Frame rate mode : Constant
Frame rate : 25.000 FPS
Color space : YUV
Chroma subsampling : 4:2:0
Bit depth : 8 bits
Scan type : Progressive
Bits/(Pixel*Frame) : 0.554
Stream size : 2.78 GiB (88%)
Title : Video-H264
Writing library : x264 core 146 r2538 121396c
Encoding settings : cabac=1 / ref=12 / deblock=1:-3:-3 / analyse=0x3:0x133 / me=umh / subme=11 / psy=1 / psy_rd=1.00:0.00 / mixed_ref=1 / me_range=32 / chroma_me=1 / trellis=2 / 8x8dct=1 / cqm=0 / deadzone=21,11 / fast_pskip=1 / chroma_qp_offset=-2 / threads=6 / lookahead_threads=1 / sliced_threads=0 / nr=0 / decimate=1 / interlaced=0 / bluray_compat=0 / constrained_intra=0 / bframes=10 / b_pyramid=2 / b_adapt=2 / b_bias=0 / direct=3 / weightb=1 / open_gop=0 / weightp=2 / keyint=250 / keyint_min=23 / scenecut=40 / intra_refresh=0 / rc_lookahead=60 / rc=2pass / mbtree=1 / bitrate=5500 / ratetol=1.0 / qcomp=0.60 / qpmin=0 / qpmax=69 / qpstep=4 / cplxblur=20.0 / qblur=0.5 / ip_ratio=1.40 / aq=1:1.00
Language : Russian
Default : Yes
Forced : No

Audio #1
ID : 2
Format : AC-3
Format/Info : Audio Coding 3
Mode extension : CM (complete main)
Format settings, Endianness : Big
Codec ID : A_AC3
Duration : 1 h 14 min
Bit rate mode : Constant
Bit rate : 448 kb/s
Channel(s) : 6 channels
Channel positions : Front: L C R, Side: L R, LFE
Sampling rate : 48.0 kHz
Frame rate : 31.250 FPS (1536 spf)
Compression mode : Lossy
Stream size : 237 MiB (7%)
Language : Russian
Default : Yes
Forced : No

Audio #2
ID : 3
Format : AC-3
Format/Info : Audio Coding 3
Mode extension : CM (complete main)
Format settings, Endianness : Big
Codec ID : A_AC3
Duration : 1 h 14 min
Bit rate mode : Constant
Bit rate : 192 kb/s
Channel(s) : 2 channels
Channel positions : Front: L R
Sampling rate : 48.0 kHz
Frame rate : 31.250 FPS (1536 spf)
Compression mode : Lossy
Stream size : 102 MiB (3%)
Language : Russian
Default : No
Forced : No

Text #1
ID : 4
Format : UTF-8
Codec ID : S_TEXT/UTF8
Codec ID/Info : UTF-8 Plain Text
Language : Russian
Default : No
Forced : No

Text #2
ID : 5
Format : UTF-8
Codec ID : S_TEXT/UTF8
Codec ID/Info : UTF-8 Plain Text
Language : English
Default : No
Forced : No
piratbit.pw



Скачать Приключения желтого чемоданчика через торрент http://pic.kartinco.top/images/1/ouyqa82s75.jpg Скачать фильм Приключения желтого чемоданчика через торрент бесплантно в хорошем качестве Описание: Мальчик Петя был таким пугливым, что его мама решила обратиться к доктору. У волшебника-доктора есть прекрасное лекарство - ... 10 10 3
Info! Золотая раздача, скачанное не засчитывается.
Торрент: Зарегистрирован [2017-05-29 14:24] · скачан: 65 раз
Статус: √ проверено
Размер: 3.18 GB
Как cкачать? Как скачать Приключения желтого чемоданчика через торрент | qTorrent

% Раздел Тема Автор DL S | L
Детские отечественные фильмы [ 1.37 GB ] желтого чемоданчика [1970 DVDRip Оригинал] кэп Скачать
1 | 0

28-11-2019 20:33  

Отключить всю рекламу на сайте

    Дорогой пользователь! Огромная просьба, поблагодарите релизера, оцените раздачу и оставьте свои комментарий, если Вы скачали Приключения желтого чемоданчика через торрент бесплатно! Внесите свою лепту в развитие PiratBit!
    Комментировать посты могут только пользователи прошедшие не сложную регистрацию
    Показать сообщения:    

    Приключения желтого чемоданчика через торрент
    Скачать бесплатно Приключения желтого чемоданчика
    Приключения желтого чемоданчика скачать торрент
    Приключения желтого чемоданчика смотреть онлайн
    Cкачать фильм Приключения желтого чемоданчика бесплатно
    Приключения желтого чемоданчика скачать торрент в хорошем качестве
    Приключения желтого чемоданчика смотреть онлайн бесплатно в хорошем качестве


    Вы не можете начинать темы
    Вы не можете отвечать на сообщения
    Вы не можете редактировать свои сообщения
    Вы не можете удалять свои сообщения
    Вы не можете голосовать в опросах
    Вы не можете прикреплять файлы к сообщениям
    Вы можете скачивать файлы